Conviction 2016 S01E08 720p WEB-DL HEVC 2CH x265


Size : 319.89 MiB (335427833 Bytes)

Source:Conviction 2016 S01E08 1080p WEB-DL DD5.1 H264-RARBG (1.66 GB)


Complete name: Conviction.2016.S01E08.720p.WEB-DL.HEVC.2CH.x265.mkv
Format
















: Matroska
Format version












: Version 4 / Version 2
File size















: 320 MiB
Duration















: 42 min
Overall bit rate











: 1 043 kb/s
Writing application










: Lavf57.25.100

Video

ID


















: 1
Format
















: V_MPEGH/ISO/HEVC
Duration















: 42 min
Bit rate















: 830 kb/s
Width

















: 1 274 pixels
Height
















: 720 pixels
Display aspect ratio









: 16:9
Frame rate mode












: Constant
Frame rate














: 25.000 FPS
Color space














: YUV
Chroma subsampling










: 4:2:0
Bit depth















: 8 bits
Bits/(Pixel*Frame)










: 0.036
Stream size














: 255 MiB (80%)
Default
















: Yes
Forced
















: No
DURATION















: 00:42:52.611000000

Audio

ID


















: 2
Format
















: AC-3
Format/Info














: Audio Coding 3
Mode extension












: CM (complete main)
Format settings, Endianness






: Big
Codec ID















: A_AC3
Duration















: 42 min
Bit rate mode













: Constant
Bit rate















: 192 kb/s
Channel(s)














: 2 channels
Channel positions











: Front: L R
Sampling rate













: 48.0 kHz
Frame rate














: 31.250 FPS (1536 spf)
Bit depth















: 32 bits
Compression mode











: Lossy
Stream size














: 58.9 MiB (18%)
Writing library












: Lavc57.24.102 ac3
Default
















: Yes
Forced
















: No
DURATION















: 00:42:52.639000000

Text

ID


















: 3
Format
















: ASS
Codec ID















: S_TEXT/ASS