Crash 2004 Directors Cut 1080p BluRay HEVC DD5.1 x265


Size : 2.25 GiB (2416690687 Bytes)

Source:Crash 2004 Directors Cut 1080p BluRay x264 DTS-ETRG(4.77 GB)


Complete name:Crash.2004.Directors.Cut.1080p.BluRay.HEVC.DD5.1.x265.mkv
Format
















: Matroska
File size















: 2.25 GiB
Duration















: 1h 55mn
Overall bit rate











: 2 802 Kbps
Movie name:Crash.2004.Directors.Cut.1080p.BluRay.HEVC.DD5.1.x265
Writing application










: mkvmerge v9.5.0 (Quiet Fire) 32bit

Video

ID


















: 1
Format
















: V_MPEGH/ISO/HEVC
Duration















: 1h 55mn
Bit rate















: 2 362 Kbps
Width

















: 1 920 pixels
Height
















: 816 pixels
Display aspect ratio









: 2.35:1
Frame rate














: 23.976 fps
Bits/(Pixel*Frame)










: 0.063
Stream size














: 1.90 GiB (84%)
Title: Crash.2004.Directors.Cut.1080p.BluRay.HEVC.DD5.1.x265
Language















: English
Default
















: Yes
Forced
















: No
DURATION















: 01:55:00.894000000

Audio

ID


















: 2
Format
















: E-AC-3
Format/Info














: Audio Coding 3
Format settings, Endianness






: Big
Codec ID















: A_EAC3
Duration















: 1h 55mn
Bit rate mode













: Constant
Bit rate















: 384 Kbps
Channel(s)














: 6 channels
Channel positions











: Front: L C R, Side: L R, LFE
Sampling rate













: 48.0 KHz
Compression mode











: Lossy
Stream size














: 316 MiB (14%)
Title

















: E-AC-3 5.1
Language















: English
Default
















: Yes
Forced
















: No

Text

ID


















: 3
Codec ID















: S_TEXT/UTF8
Title

















: English