Creature 3D (2014) upscaled 720p DVDRip x.264 AC3 5.1 E.Sub Team


Size : 2.21 GiB (2369977377 Bytes)

Creature 3D (2014) upscaled 720p DVDRip x.264 AC3 5.1 E.Sub TeamTNT

Cover:

http://forum.primetimeshow.in/viewtopic.php?f=7&t=671

Screenshots:
http://m.primetimeshow.in/share-BC73_543FC9B4.html
http://m.primetimeshow.in/share-2DEB_543FC9B4.html
http://m.primetimeshow.in/share-AE19_543FC9B4.html
http://m.primetimeshow.in/share-4870_543FC9B4.html
http://m.primetimeshow.in/share-274A_543FC9B4.html

Movie:............Creature 3D
Source: ..........DVD9 @ TeamTNT
Year:.............2014

General
Complete name : E:Creature 3D.mkv
Format : Matroska
Format version : Version 2
File size : 2.20 GiB
Duration : 2h 17mn
Overall bit rate : 2 285 Kbps
Encoded date : UTC 2014-10-15 12:38:21
Writing application : mkvmerge v7.0.0 ('Where We Going') 32bit built on Jun 9 2014 15:08:34
Writing library : libebml v1.3.0 + libmatroska v1.4.1
_STATISTICS_WRITING_APP : mkvmerge v7.0.0 ('Where We Going') 32bit built on Jun 9 2014 15:08:34
_STATISTICS_WRITING_DATE_UTC : 2014-10-15 12:38:21
_STATISTICS_TAGS : BPS DURATION NUMBER_OF_FRAMES NUMBER_OF_BYTES
DURATION : 02:06:13.657000000
NUMBER_OF_FRAMES : 1327
NUMBER_OF_BYTES : 1095615

Video
ID : 1
Format : AVC
Format/Info : Advanced Video Codec
Format profile : [email protected]/* */
Format settings, CABAC : Yes
Format settings, ReFrames : 16 frames
Codec ID : V_MPEG4/ISO/AVC
Duration : 2h 17mn
Bit rate : 1 834 Kbps
Width : 1 280 pixels
Height : 544 pixels
Display aspect ratio : 2.35:1
Frame rate : 29.970 fps
Color space : YUV
Chroma subsampling : 4:2:0
Bit depth : 8 bits
Scan type : Progressive
Bits/(Pixel*Frame) : 0.088
Stream size : 1.72 GiB (78%)

Audio
ID : 2
Format : AC-3
Format/Info : Audio Coding 3
Mode extension : CM (complete main)
Codec ID : A_AC3
Duration : 2h 17mn
Bit rate mode : Constant
Bit rate : 448 Kbps
Channel(s) : 6 channels
Channel positions : Front: L C R, Side: L R, LFE
Sampling rate : 48.0 KHz
Bit depth : 16 bits
Compression mode : Lossy
Stream size : 441 MiB (20%)

Text
ID : 3
Format : VobSub
Muxing mode : zlib
Codec ID : S_VOBSUB
Codec ID/Info : The same subtitle format used on DVDs
Language : English


Thanks to TeamTNT!!

Seed n ENjoy!!