David Guetta Feat. Akon – Sexy Chick (Official Video) – Full HD


Size : 67.95 MiB (71254958 Bytes)

General
Unique ID








: 176541846575885911389062242032465750871 (0x84D0B90E634BF086A24398793E8C2B57)
Complete name






: K:HD Songs & OtherENGLISH SONGDavid Guetta Feat. Akon - Sexy Chick (Official Video) - Full HD 720p.mkv
Format










: Matroska
Format version






: Version 4 / Version 2
File size








: 68.0 MiB
Duration









: 3mn 31s
Overall bit rate mode


: Variable
Overall bit rate





: 2 701 Kbps
Movie name








: David Guetta Feat. Akon - Sexy Chick (Official Video) - Full HD 720p By TaRa
Encoded date







: UTC 2016-06-27 01:59:06
Writing application



: mkvmerge v8.3.0 ('Over the Horizon') 64bit
Writing library





: libebml v1.3.1 + libmatroska v1.4.2
======================================================================================
Video
ID












: 1
Format










: AVC
Format/Info







: Advanced Video Codec
Format profile






: [email protected]/* */
Format settings, CABAC


: Yes
Format settings, ReFrames
: 3 frames
Codec ID









: V_MPEG4/ISO/AVC
Duration









: 3mn 31s
Bit rate mode






: Variable
Bit rate









: 2 603 Kbps
Maximum bit rate





: 40.0 Mbps
Width










: 1 280 pixels
Height










: 544 pixels
Display aspect ratio



: 2.35:1
Frame rate mode





: Constant
Frame rate








: 25.000 fps
Color space







: YUV
Chroma subsampling




: 4:2:0
Bit depth








: 8 bits
Scan type








: Progressive
Bits/(Pixel*Frame)




: 0.150
Stream size







: 65.5 MiB (96%)
Title










: = __ TaRa ~ DDR __ =
Writing library





: x264 core 148 r2638 7599210
Encoding settings




: cabac=1 / ref=3 / deblock=1:0:0 / analyse=0x3:0x113 / me=hex / subme=7 / psy=1 / psy_rd=1.00:0.00 / mixed_ref=1 / me_range=16 / chroma_me=1 / trellis=1 / 8x8dct=1 / cqm=0 / deadzone=21,11 / fast_pskip=1 / chroma_qp_offset=-2 / threads=3 / lookahead_threads=1 / sliced_threads=0 / slices=4 / nr=0 / decimate=1 / interlaced=0 / bluray_compat=1 / constrained_intra=0 / bframes=3 / b_pyramid=1 / b_adapt=1 / b_bias=0 / direct=1 / weightb=1 / open_gop=1 / weightp=1 / keyint=25 / keyint_min=1 / scenecut=40 / intra_refresh=0 / rc_lookahead=25 / rc=2pass / mbtree=1 / bitrate=2603 / ratetol=1.0 / qcomp=0.60 / qpmin=0 / qpmax=69 / qpstep=4 / cplxblur=20.0 / qblur=0.5 / vbv_maxrate=40000 / vbv_bufsize=30000 / nal_hrd=vbr / filler=0 / ip_ratio=1.40 / aq=1:1.00
Language









: English
Default









: Yes
Forced










: No
===================================================================================
Audio
ID












: 2
Format










: AAC
Format/Info







: Advanced Audio Codec
Format profile






: LC
Codec ID









: A_AAC
Duration









: 3mn 31s
Bit rate









: 96.0 Kbps
Channel(s)








: 2 channels
Channel positions




: Front: L R
Sampling rate






: 44.1 KHz
Frame rate








: 43.066 fps (1024 spf)
Compression mode





: Lossy
Delay relative to video

: 10ms
Stream size







: 2.39 MiB (4%)
Title










: = __ TaRa ~ DDR __ =
Language









: English
Default









: Yes
Forced










: No
==================================================================== https://picoolio.net/image/I8DJ