Dawn of the Planet of the Apes (2014) Dual Audio 3D-halfOU BDRip


Size : 14.66 GiB (15737258239 Bytes)

 ______
_______
______

___
_


___
--------|
|


| |
_
||

_ |
|
| | |

|
||
|----|


|
_

||
|_|
||
| ||
|
|_| |

|
||
|___
| | |
||


||
|_||_ |


_|

|
||

_
|
| |_|
||


||

__
||

|_
___|
||
| | |
|


||
_
||
|
| ||

_
||


||
|_| |
|______| |__| |__||___|
|_||___| |_||_______||_______|




























https://thepiratebay.se/user/darkj6/

Join ThePirateBay Forum:








































https://forum.suprbay.org/member.php?action=register&referrer=908

http://www.imdb.com/title/tt2103281/


Quality : BDRip (by Ash61 )

Container : MKV

format 3D : Half OverUnder / Vertical anamorphic stereo pair

Procedure angles : left angle first

Video codec : x264 Audio

codec : AC3


Video: AVC / 23.976 FPS / 1920x1080 p / 13.4 Mbps

Audio: # 1 - Russian / AC3 / 48 KHz / 5.1 ch / 640 Kbps ( Dubbed - BD CEE )





# 2 - Russian / AC3 / 48 KHz / 5.1 ch / 640 Kbps ( VO - D. ECAP ) (voiced speech and monkeys)





# 3 - Ukrainian / AC3 / 48 KHz / 5.1 ch / 448 Kbps ( Dubbed - BD CEE )





# 4 - English / AC3 / 48 KHz / 5.1 ch / 640 Kbps ( original - BD 3D )

Subtitles: (SRT) Sewn (softsub):





# 1 - Russian Forced ( the speech of the Apes ) [ enabled by default ]





# 2 - Russian Full # 2 - Ukrainian Forced ( the speech of the Apes )






# 2 - Ukrainian Full (i)






# 3 - English Forced ( on ape Language )






# 4 - English Full (i) External (UTF-8): # 1 - Russian Forced ( the speech of the Apes ) [ enabled by default ] # 2 - Ukrainian Forced ( on we are apes )


General
Unique ID : 207217100816967568095611936310085914494 (0x9BE48FDBA4D9B97394D4F52FABF18F7E)
Complete name : E:DawnOfThePlanetOfTheApes(2014)3D-halfOU(Ash61)DawnOfThePlanetOfTheApes(2014)3D-halfOU(Ash61).mkv
Format : Matroska
Format version : Version 2
File size : 14.7 GiB
Duration : 2h 10mn
Overall bit rate : 16.1 Mbps
Movie name : Планета обезьян: Революция / Dawn of the Planet of the Apes (2014) 3D
Encoded date : UTC 2014-11-27 14:35:00
Writing application : mkvmerge v5.8.0 ('No Sleep / Pillow') built on Sep 2 2012 15:37:04
Writing library : libebml v1.2.3 + libmatroska v1.3.0

Video
ID : 1
Format : AVC
Format/Info : Advanced Video Codec
Format profile : [email protected]/* */
Format settings, CABAC : Yes
Format settings, ReFrames : 4 frames
Codec ID : V_MPEG4/ISO/AVC
Duration : 2h 10mn
Bit rate : 13.4 Mbps
Width : 1 920 pixels
Height : 1 080 pixels
Display aspect ratio : 16:9
Frame rate mode : Constant
Frame rate : 23.976 fps
Color space : YUV
Chroma subsampling : 4:2:0
Bit depth : 8 bits
Scan type : Progressive
Bits/(Pixel*Frame) : 0.270
Stream size : 12.2 GiB (83%)
Title : BDRip by Ash61
Writing library : x264 core 138 r2358 9e941d1
Encoding settings : cabac=1 / ref=4 / deblock=1:-3:-3 / analyse=0x3:0x113 / me=umh / subme=10 / psy=1 / psy_rd=1.00:0.15 / mixed_ref=1 / me_range=32 / chroma_me=1 / trellis=2 / 8x8dct=1 / cqm=0 / deadzone=21,11 / fast_pskip=1 / chroma_qp_offset=-3 / threads=12 / lookahead_threads=3 / sliced_threads=0 / nr=0 / decimate=1 / interlaced=0 / bluray_compat=0 / constrained_intra=0 / bframes=10 / b_pyramid=2 / b_adapt=2 / b_bias=0 / direct=3 / weightb=1 / open_gop=0 / weightp=2 / keyint=250 / keyint_min=23 / scenecut=40 / intra_refresh=0 / rc_lookahead=60 / rc=crf / mbtree=1 / crf=17.5 / qcomp=0.70 / qpmin=0 / qpmax=69 / qpstep=4 / vbv_maxrate=40000 / vbv_bufsize=30000 / crf_max=0.0 / nal_hrd=none / frame-packing=4 / ip_ratio=1.40 / aq=1:0.70
Language : English
Default : Yes
Forced : No

Audio #1
ID : 2
Format : AC-3
Format/Info : Audio Coding 3
Mode extension : CM (complete main)
Format settings, Endianness : Big
Codec ID : A_AC3
Duration : 2h 10mn
Bit rate mode : Constant
Bit rate : 640 Kbps
Channel(s) : 6 channels
Channel positions : Front: L C R, Side: L R, LFE
Sampling rate : 48.0 KHz
Bit depth : 16 bits
Compression mode : Lossy
Stream size : 597 MiB (4%)
Title : Дубляж - BD CEE
Language : Russian
Default : Yes
Forced : No

Audio #2
ID : 3
Format : AC-3
Format/Info : Audio Coding 3
Mode extension : CM (complete main)
Format settings, Endianness : Big
Codec ID : A_AC3
Duration : 2h 10mn
Bit rate mode : Constant
Bit rate : 640 Kbps
Channel(s) : 6 channels
Channel positions : Front: L C R, Side: L R, LFE
Sampling rate : 48.0 KHz
Bit depth : 16 bits
Compression mode : Lossy
Stream size : 597 MiB (4%)
Title : Одноголосый закадровый - Д. Есарев
Language : Russian
Default : No
Forced : No

Audio #3
ID : 4
Format : AC-3
Format/Info : Audio Coding 3
Mode extension : CM (complete main)
Format settings, Endianness : Big
Codec ID : A_AC3
Duration : 2h 10mn
Bit rate mode : Constant
Bit rate : 448 Kbps
Channel(s) : 6 channels
Channel positions : Front: L C R, Side: L R, LFE
Sampling rate : 48.0 KHz
Bit depth : 16 bits
Compression mode : Lossy
Stream size : 418 MiB (3%)
Title : Дубляж - BD CEE
Language : Ukrainian
Default : No
Forced : No

Audio #4
ID : 5
Format : AC-3
Format/Info : Audio Coding 3
Mode extension : CM (complete main)
Format settings, Endianness : Big
Codec ID : A_AC3
Duration : 2h 10mn
Bit rate mode : Constant
Bit rate : 640 Kbps
Channel(s) : 6 channels
Channel positions : Front: L C R, Side: L R, LFE
Sampling rate : 48.0 KHz
Bit depth : 16 bits
Compression mode : Lossy
Stream size : 597 MiB (4%)
Title : Original - BD 3D
Language : English
Default : No
Forced : No

Text #1
ID : 6
Format : UTF-8
Codec ID : S_TEXT/UTF8
Codec ID/Info : UTF-8 Plain Text
Title : Форсированные (на речь обезьян)
Language : Russian
Default : Yes
Forced : No

Text #2
ID : 7
Format : UTF-8
Codec ID : S_TEXT/UTF8
Codec ID/Info : UTF-8 Plain Text
Title : Полные
Language : Russian
Default : No
Forced : No

Text #3
ID : 8
Format : UTF-8
Codec ID : S_TEXT/UTF8
Codec ID/Info : UTF-8 Plain Text
Title : Форсированные (на речь обезьян)
Language : Ukrainian
Default : No
Forced : No

Text #4
ID : 9
Format : UTF-8
Codec ID : S_TEXT/UTF8
Codec ID/Info : UTF-8 Plain Text
Title : Полные
Language : Ukrainian
Default : No
Forced : No

Text #5
ID : 10
Format : UTF-8
Codec ID : S_TEXT/UTF8
Codec ID/Info : UTF-8 Plain Text
Title : Forced
Language : English
Default : No
Forced : No

Text #6
ID : 11
Format : UTF-8
Codec ID : S_TEXT/UTF8
Codec ID/Info : UTF-8 Plain Text
Title : Full
Language : English
Default : No
Forced : No

Menu
00:00:00.000 : en:00:00:00.000
00:03:21.159 : en:00:03:21.159
00:07:34.913 : en:00:07:34.913
00:12:36.547 : en:00:12:36.547
00:16:23.566 : en:00:16:23.566
00:18:47.043 : en:00:18:47.043
00:21:52.478 : en:00:21:52.478
00:25:26.692 : en:00:25:26.692
00:29:45.867 : en:00:29:45.867
00:31:50.617 : en:00:31:50.617
00:36:43.743 : en:00:36:43.743
00:39:07.554 : en:00:39:07.554
00:40:57.163 : en:00:40:57.163
00:44:12.233 : en:00:44:12.233
00:48:11.138 : en:00:48:11.138
00:50:31.528 : en:00:50:31.528
00:53:48.016 : en:00:53:48.016
00:57:25.317 : en:00:57:25.317
01:01:18.466 : en:01:01:18.466
01:02:35.377 : en:01:02:35.377
01:04:24.069 : en:01:04:24.069
01:06:21.728 : en:01:06:21.728
01:09:31.334 : en:01:09:31.334
01:13:56.974 : en:01:13:56.974
01:17:17.925 : en:01:17:17.925
01:20:53.390 : en:01:20:53.390
01:23:28.754 : en:01:23:28.754
01:26:08.997 : en:01:26:08.997
01:28:19.252 : en:01:28:19.252
01:33:24.390 : en:01:33:24.390
01:35:53.122 : en:01:35:53.122
01:38:38.621 : en:01:38:38.621
01:40:42.536 : en:01:40:42.536
01:44:07.533 : en:01:44:07.533
01:46:05.317 : en:01:46:05.317
01:47:54.468 : en:01:47:54.468
01:52:13.769 : en:01:52:13.769
01:56:27.480 : en:01:56:27.480
02:00:31.015 : en:02:00:31.015
02:01:35.038 : en:02:01:35.038