Dawn of the Planet of the Apes 3D*2014*[1080p.HOU.DTS.BluRay.x26


Size : 11.63 GiB (12489188215 Bytes)

Ewolucja planety małp 3D - Dawn of the Planet of the Apes *2014*PL 1080p Half-OU(Leon 345)
===========================================================

gatunek: Dramat, Akcja, Sci-Fi
produkcja: USA
premiera: 11 lipca 2014 (Polska) 26 czerwca 2014 (świat)
reżyseria: Matt Reeves
scenariusz: Rick Jaffa, Amanda Silver, Mark Bomback
czas: 2 godz. 10 min.
http://www.filmweb.pl/film/Ewolucja+planety+ma%C5%82p-2014-644064 http://www.imdb.com/title/tt2103281

Kontynuacja “Genezy planety małp”, w której poznamy dalszą historię przejęcia przez inteligentne małpy panowania nad naszą planetą i upadku cywilizacji człowieka. Rosnąca w siłę rasa genetycznie zmutowanych małp pod wodzą Cezara zmaga się z grupą ludzi, którzy przetrwali atak śmiertelnego wirusa, siejącego spustoszenie dziesięć lat wcześniej. Rozejm, który udaje im się osiągnąć, okazuje się krótkotrwały. Świat staje na krawędzi wojny, której zwycięzcy staną się dominującym gatunkiem na Ziemi. Reżyseria: Rupert Wyatt, w ”roli” Cezara ponownie Andy Serkis, niezapomniany Gollum z ”Władcy pierścieni”

Obsada:

Andy Serkis - Caesar

Jason Clarke - Malcolm

Gary Oldman - Dreyfus

Keri Russell - Ellie

Toby Kebbell - Koba

Kodi Smit-McPhee - Alexander

Kirk Acevedo - Carver

Nick Thurston - "Niebieskooki"


Format : Matroska
Format version : Version 2
File size : 11.6 GiB
Duration : 2h 10mn
Overall bit rate : 12.8 Mbps
Movie name : Dawn.of.the.Planet.of.the.Apes.3D.2014.Rip by Leon 345
Encoded date : UTC 2014-11-26 12:31:44
Writing application : mkvmerge v5.7.0 ('The Whirlwind') built on Jul 8 2012 20:08:51
Writing library : libebml v1.2.3 + libmatroska v1.3.0

Video
ID : 1
Format : AVC
Format/Info : Advanced Video Codec
Format profile : [email protected]/* */
Format settings, CABAC : Yes
Format settings, ReFrames : 2 frames
Codec ID : V_MPEG4/ISO/AVC
Duration : 2h 10mn
Bit rate : 10.0 Mbps
Width : 1 920 pixels
Height : 1 080 pixels
Display aspect ratio : 16:9
Frame rate mode : Constant
Frame rate : 23.976 fps
Color space : YUV
Chroma subsampling : 4:2:0
Bit depth : 8 bits
Scan type : Progressive
Bits/(Pixel*Frame) : 0.200
Stream size : 9.03 GiB (78%)
Writing library : x264 core
Default : Yes
Forced : No


Audio #1
ID : 2
Format : AC-3
Format/Info : Audio Coding 3
Mode extension : CM (complete main)
Format settings, Endianness : Big
Codec ID : A_AC3
Duration : 2h 10mn
Bit rate mode : Constant
Bit rate : 448 Kbps
Channel(s) : 6 channels
Channel positions : Front: L C R, Side: L R, LFE
Sampling rate : 48.0 KHz
Bit depth : 16 bits
Compression mode : Lossy
Stream size : 418 MiB (4%)
Title : AC3 5.1 Lektor PL
Language : Polish
Default : Yes
Forced : Yes

Audio #2
ID : 3
Format : AC-3
Format/Info : Audio Coding 3
Mode extension : CM (complete main)
Format settings, Endianness : Big
Codec ID : A_AC3
Duration : 2h 10mn
Bit rate mode : Constant
Bit rate : 640 Kbps
Channel(s) : 6 channels
Channel positions : Front: L C R, Side: L R, LFE
Sampling rate : 48.0 KHz
Bit depth : 16 bits
Compression mode : Lossy
Stream size : 597 MiB (5%)
Title : AC3 5.1
Language : English
Default : No
Forced : No

Audio #3
ID : 4
Format : DTS
Format/Info : Digital Theater Systems
Format profile : ES
Mode : 16
Format settings, Endianness : Big
Codec ID : A_DTS
Duration : 2h 10mn
Bit rate mode : Constant
Bit rate : 1 509 Kbps
Channel(s) : 6 channels
Channel positions : Front: L C R, Side: L R, LFE
Sampling rate : 48.0 KHz
Bit depth : 24 bits
Compression mode : Lossy
Stream size : 1.37 GiB (12%)
Title : DTS ES 5.1
Language : English
Default : No
Forced : No

Text #1
ID : 5
Format : UTF-8
Codec ID : S_TEXT/UTF8
Codec ID/Info : UTF-8 Plain Text
Title : Napisy 2D
Language : Polish
Default : No
Forced : No

Text #2
ID : 6
Format : PGS
Muxing mode : zlib
Codec ID : S_HDMV/PGS
Codec ID/Info : The same subtitle format used on BDs/HD-DVDs
Title : Napisy 3D
Language : Polish
Default : No
Forced : No

Menu
00:00:00.000 : en:(01)00:00:00:000
00:03:21.158 : en:(02)00:03:21:158
00:07:34.911 : en:(03)00:07:34:911
00:12:36.547 : en:(04)00:12:36:547
00:16:23.565 : en:(05)00:16:23:565
00:18:47.041 : en:(06)00:18:47:041
00:21:52.477 : en:(07)00:21:52:477
00:25:26.691 : en:(08)00:25:26:691
00:29:45.866 : en:(09)00:29:45:866
00:31:50.616 : en:(10)00:31:50:616
00:36:43.742 : en:(11)00:36:43:742
00:39:07.552 : en:(12)00:39:07:552
00:40:57.163 : en:(13)00:40:57:163
00:44:12.231 : en:(14)00:44:12:231
00:48:11.137 : en:(15)00:48:11:137
00:50:31.527 : en:(16)00:50:31:527
00:53:48.016 : en:(17)00:53:48:016
00:57:25.315 : en:(18)00:57:25:315
01:01:18.465 : en:(19)01:01:18:465
01:02:35.376 : en:(20)01:02:35:376
01:04:24.068 : en:(21)01:04:24:068
01:06:21.726 : en:(22)01:06:21:726
01:09:31.332 : en:(23)01:09:31:332
01:13:56.974 : en:(24)01:13:56:974
01:17:17.923 : en:(25)01:17:17:923
01:20:53.390 : en:(26)01:20:53:390
01:23:28.752 : en:(27)01:23:28:752
01:26:08.997 : en:(28)01:26:08:997
01:28:19.252 : en:(29)01:28:19:252
01:33:24.390 : en:(30)01:33:24:390
01:35:53.122 : en:(31)01:35:53:122
01:38:38.621 : en:(32)01:38:38:621
01:40:42.536 : en:(33)01:40:42:536
01:44:07.532 : en:(34)01:44:07:532
01:46:05.317 : en:(35)01:46:05:317
01:47:54.466 : en:(36)01:47:54:466
01:52:13.768 : en:(37)01:52:13:768
01:56:27.479 : en:(38)01:56:27:479
02:00:31.015 : en:(39)02:00:31:015
02:01:35.037 : en:(40)02:01:35:037
02:10:24.608 : en:(41)02:10:24:608

Source [thx]:
V- HDAccess
A- BD CEE