Despicable Me 2 3D HSBS 1080p BRRip in Hindi {TheEmirsKrew}


Size : 1.55 GiB (1664670454 Bytes)

General
Complete name : Despicable Me 2 3D HSBS 1080p BRRip in Hindi {TheEmirsKrew}Despicable Me 2 3D HSBS 1080p BRRip in Hindi {TheEmirsKrew}.mp4
Format : MPEG-4
Format profile : Base Media
Codec ID : isom
File size : 1.53 GiB
Duration : 1h 38mn
Overall bit rate mode : Variable
Overall bit rate : 2 227 Kbps
Movie name : Encoder:tahar279279
ContentType : Movie
Encoded date : UTC 2013-11-08 07:31:34
Tagged date : UTC 2013-11-08 07:34:19
Copyright :
Cover : Yes

Video
ID : 1
Format : AVC
Format/Info : Advanced Video Codec
Format profile : [email protected]/* */
Format settings, CABAC : Yes
Format settings, ReFrames : 4 frames
Codec ID : avc1
Codec ID/Info : Advanced Video Coding
Duration : 1h 37mn
Bit rate : 2 018 Kbps
Maximum bit rate : 10.3 Mbps
Width : 1 920 pixels
Height : 1 080 pixels
Display aspect ratio : 16:9
Frame rate mode : Constant
Frame rate : 23.976 fps
Color space : YUV
Chroma subsampling : 4:2:0
Bit depth : 8 bits
Scan type : Progressive
Bits/(Pixel*Frame) : 0.041
Stream size : 1.38 GiB (90%)
Writing library : x264 core 132 r2 76a5c3a
Encoding settings : cabac=1 / ref=4 / deblock=1:-1:-1 / analyse=0x3:0x133 / me=umh / subme=9 / psy=1 / psy_rd=1.00:0.15 / mixed_ref=1 / me_range=24 / chroma_me=1 / trellis=2 / 8x8dct=1 / cqm=0 / deadzone=21,11 / fast_pskip=0 / chroma_qp_offset=-3 / threads=36 / lookahead_threads=3 / sliced_threads=0 / nr=0 / decimate=1 / interlaced=0 / bluray_compat=0 / constrained_intra=0 / bframes=3 / b_pyramid=2 / b_adapt=2 / b_bias=0 / direct=3 / weightb=1 / open_gop=0 / weightp=2 / keyint=250 / keyint_min=23 / scenecut=40 / intra_refresh=0 / rc_lookahead=60 / rc=2pass / mbtree=1 / bitrate=2018 / ratetol=1.0 / qcomp=0.60 / qpmin=0 / qpmax=69 / qpstep=4 / cplxblur=20.0 / qblur=0.5 / vbv_maxrate=31250 / vbv_bufsize=31250 / nal_hrd=none / ip_ratio=1.40 / aq=1:1.00
Language : English
Encoded date : UTC 2013-11-08 07:31:34
Tagged date : UTC 2013-11-08 07:32:39
Color primaries : BT.709
Matrix coefficients : BT.709

Audio
ID : 2
Format : AAC
Format/Info : Advanced Audio Codec
Format profile : LC
Codec ID : 40
Duration : 1h 38mn
Source duration : 1h 38mn
Bit rate mode : Variable
Bit rate : 208 Kbps
Maximum bit rate : 267 Kbps
Channel(s) : 2 channels
Channel positions : Front: L R
Sampling rate : 48.0 KHz
Compression mode : Lossy
Stream size : 146 MiB (9%)
Source stream size : 146 MiB (9%)
Title : tahar279279 and sbaz44
Language : Hindi
Encoded date : UTC 2013-11-08 07:26:43
Tagged date : UTC 2013-11-08 07:32:39