DJ Khaled – Gold Slugs [Music Video] 1080p [Sbyky]


Size : 128.16 MiB (134383838 Bytes)

General
Complete name













: DJ Khaled Ft. Chris Brown, August Alsina & Fetty Wap - Gold Slugs [Music Video] 1080p [Sbyky].mp4
Format
















: MPEG-4
Format profile












: Base Media
Codec ID















: isom (isom/iso2/avc1/mp41)
File size















: 128 MiB
Duration















: 5 min 24 s
Overall bit rate mode









: Variable
Overall bit rate











: 3 316 kb/s
Encoded date













: UTC 2015-10-18 10:44:35
Tagged date














: UTC 2015-10-18 10:44:35

Video
ID


















: 1
Format
















: AVC
Format/Info














: Advanced Video Codec
Format profile












: [email protected]/* */
Format settings, CABAC








: Yes
Format settings, ReFrames







: 3 frames
Codec ID















: avc1
Codec ID/Info













: Advanced Video Coding
Duration















: 5 min 24 s
Bit rate















: 3 187 kb/s
Width

















: 1 920 pixels
Height
















: 1 080 pixels
Display aspect ratio









: 16:9
Frame rate mode












: Variable
Frame rate














: 23.976 (24000/1001) FPS
Minimum frame rate










: 23.974 FPS
Maximum frame rate










: 23.981 FPS
Color space














: YUV
Chroma subsampling










: 4:2:0
Bit depth















: 8 bits
Scan type















: Progressive
Bits/(Pixel*Frame)










: 0.064
Stream size














: 123 MiB (96%)
Encoded date













: UTC 2015-10-18 10:44:35
Tagged date














: UTC 2015-10-18 10:44:35

Audio
ID


















: 2
Format
















: AAC
Format/Info














: Advanced Audio Codec
Format profile












: LC
Codec ID















: 40
Duration















: 5 min 24 s
Bit rate mode













: Variable
Bit rate















: 126 kb/s
Channel(s)














: 2 channels
Channel positions











: Front: L R
Sampling rate













: 44.1 kHz
Frame rate














: 43.066 FPS (1024 spf)
Compression mode











: Lossy
Stream size














: 4.85 MiB (4%)
Default
















: Yes
Alternate group












: 1
Encoded date













: UTC 2015-10-18 10:41:05
Tagged date














: UTC 2015-10-18 10:41:05

Shared By Sbyky
[IMG]http://i.imgur.com/vZ960QE.gif[/IMG]
[IMG]http://i.imgur.com/8PlzFy0.gif[/IMG]