Doctor Who Season 9 S09 720p BluRay ~{KiNg}


Size : 5.07 GiB (5447847679 Bytes)

[b]General[/b]
Format : Matroska
Format version : Version 4 / Version 2
File size : 391 MiB
Duration : 46mn 20s
Overall bit rate : 1 181 Kbps

[b]Video[/b]
ID : 1
Format : AVC
Format/Info : Advanced Video Codec
Format profile : [email protected]/* */
Format settings, CABAC : Yes
Format settings, ReFrames : 4 frames
Codec ID : V_MPEG4/ISO/AVC
Duration : 46mn 20s
Bit rate : 1 087 Kbps
Width : 1 280 pixels
Height : 720 pixels
Display aspect ratio : 16:9
Frame rate mode : Constant
Frame rate : 25.000 fps
Color space : YUV
Chroma subsampling : 4:2:0
Bit depth : 8 bits
Scan type : Progressive
Bits/(Pixel*Frame) : 0.047
Stream size : 360 MiB (92%)

[b]Audio[/b]
ID : 2
Format : AAC
Format/Info : Advanced Audio Codec
Format profile : LC
Codec ID : A_AAC
Duration : 46mn 20s
Bit rate : 90.8 Kbps
Channel(s) : 2 channels
Channel positions : Front: L R
Sampling rate : 48.0 KHz
Frame rate : 46.875 fps (1024 spf)
Compression mode : Lossy
Delay relative to video : 9ms
Stream size : 30.1 MiB (8%)
Language : English
Default : No
Forced : No