Dragon Blande (2015) HINDI Untouched NTSC CAM-MP2 2.0-Team Tell


Size : 819.72 MiB (859535360 Bytes)

[img]http://i.imgur.com/6NGXx7v.png[/img]

[color=red][b]Dragon Blande (2015) HINDI Untouched NTSC CAM-MP2 2.0-Team Telly Exclusive[/b][/color]

[img]http://i.imgur.com/YUuhNdl.jpg[/Img]


[color=red][b]Storyline:[/b][/color]

[color=purple][b]Lost Roman soldiers navigate their way through China..[/b][/color]

[color=green][b]Genres:Action, Adventure, Drama

Country: India
Language: Hindi
Release Date:19 February 2015 (China)
[/b][/color]

[color=red][b]Media Information:[/b][/color]


[color=blue]Complete name






:Dragon Blande (2015) HINDI Untouched NTSC CAM-MP2 2.0-Team Telly Exclusive

Format
















: MPEG-PS
File size















: 820 MiB
Duration















: 2h 5mn
Overall bit rate mode









: Variable
Overall bit rate











: 915 Kbps

Video
ID


















: 224 (0xE0)
Format
















: MPEG Video
Format version












: Version 2
Format profile












: [email protected]/* */
Format settings, BVOP









: Yes
Format settings, Matrix








: Custom
Format settings, GOP









: Variable
Duration















: 2h 5mn
Bit rate mode













: Variable
Bit rate















: 801 Kbps
Maximum bit rate











: 8 000 Kbps
Width

















: 352 pixels
Height
















: 288 pixels
Display aspect ratio









: 4:3
Frame rate














: 25.000 fps
Standard















: PAL
Color space














: YUV
Chroma subsampling










: 4:2:0
Bit depth















: 8 bits
Scan type















: Progressive
Compression mode











: Lossy
Bits/(Pixel*Frame)










: 0.316
Time code of first frame







: 00:00:00:00
Time code source











: Group of pictures header
Stream size














: 717 MiB (88%)
Color primaries












: BT.601 PAL
Transfer characteristics







: BT.470 System B, BT.470 System G
Matrix coefficients










: BT.601

Audio
ID


















: 192 (0xC0)
Format
















: MPEG Audio
Format version












: Version 1
Format profile












: Layer 2
Duration















: 2h 5mn
Bit rate mode













: Constant
Bit rate















: 96.0 Kbps
Channel(s)














: 2 channels
Sampling rate













: 48.0 KHz
Compression mode











: Lossy
Stream size














: 86.0 MiB (10%)

[/color]

[color=red][b]Screenshot:[/b][/color]

[img]http://i.imgur.com/AdEErr3.png[/img]

[img]http://i.imgur.com/Cge03yU.png[/img]

[img]http://i.imgur.com/iJjzH2l.png[/img]

[img]http://i.imgur.com/Gxssaci.png[/img]

[img]http://i.imgur.com/d2Zgvlm.png[/img]

[img]http://s25.postimg.org/gk60mev33/Rsy_Encode_copy.jpg[/img]

[b]I am on FaceBook, Post Your suggestion, and find upcoming Releases at FB Page so keep in touch !!![/b]


[color=red][b]Note : Please try to seed as much as you can since "sharing brings joy" ! [/b][/color]