Dukhtar (2015) 720p WebHDRip x264 AAC Urdu Subtitales { TaRa }


Size : 1.46 GiB (1564082876 Bytes)

===================================================================
General
Complete name






:Dukhtar (2015) 720p WebHDRip x264 AAC Urdu Subtitales { TaRa }.mkv
Format










: Matroska
Format version






: Version 4 / Version 2
File size








: 1.42 GiB
Duration









: 1 h 32 min
Overall bit rate





: 2 193 kb/s
====================================================================
Video
ID












: 1
Format










: AVC
Format/Info







: Advanced Video Codec
Format profile






: [email protected]/* */
Format settings, CABAC


: Yes
Format settings, ReFrames
: 12 frames
Codec ID









: V_MPEG4/ISO/AVC
Duration









: 1 h 32 min
Bit rate









: 2 000 kb/s
Width










: 1 280 pixels
Height










: 544 pixels
Display aspect ratio



: 2.35:1
Frame rate mode





: Constant
Frame rate








: 24.000 FPS
Color space







: YUV
Chroma subsampling




: 4:2:0
Bit depth








: 8 bits
Scan type








: Progressive
Bits/(Pixel*Frame)




: 0.120
Stream size







: 1.30 GiB (91%)
Language









: English
Default









: Yes
Forced










: No
===================================================================
Audio
ID












: 2
Format










: AAC
Format/Info







: Advanced Audio Codec
Format profile






: HE-AAC / LC
Codec ID









: A_AAC
Duration









: 1 h 32 min
Bit rate









: 192 kb/s
Channel(s)








: 6 channels
Channel positions




: Front: L C R, Side: L R, LFE
Sampling rate






: 48.0 kHz / 24.0 kHz
Frame rate








: 23.438 FPS (1024 spf)
Compression mode





: Lossy
Delay relative to video

: 31 ms
Stream size







: 127 MiB (9%)
Default









: Yes
Forced










: No
=====================================================================
Text
ID












: 3
Format










: UTF-8
Codec ID









: S_TEXT/UTF8
Codec ID/Info






: UTF-8 Plain Text
Duration









: 1 h 25 min
Bit rate









: 36 b/s
Count of elements




: 718
Stream size







: 22.8 KiB (0%)
Language









: English
Default









: No
Forced










: No
===================================================================== http://extraimage.net/image/wVAc http://extraimage.net/image/wVA7 http://extraimage.net/image/wVA1 http://extraimage.net/image/wVAE http://extraimage.net/image/wVAO http://extraimage.net/image/wVAS http://extraimage.net/image/wVAy http://extraimage.net/image/wVAq http://extraimage.net/image/wVAL http://extraimage.net/image/wVAQ http://extraimage.net/image/wVAR http://extraimage.net/image/wVAi http://extraimage.net/image/wVAm http://extraimage.net/image/wVAI http://extraimage.net/image/wVAl http://extraimage.net/image/wVAh http://extraimage.net/image/wVAd http://extraimage.net/image/wVAb http://extraimage.net/image/wVA3