Ed Sheeran – Thinking Out Loud (2014.Pop)


Size : 148.49 MiB (155703734 Bytes)

ED SHEERAN - THINKING OUT LOUD

http://gifyu.com/images/Sheeran.png


MPEG4 MUSIC VID
General
Complete name













: Ed Sheeran - Thinking Out Loud
Format
















: MPEG-4
Format profile












: Base Media
Codec ID















: isom
File size















: 148 MiB
Duration















: 4mn 44s
Overall bit rate











: 4 371 Kbps
MusicVid name













: Thinking Out Loud
Album

















: X
Performer















: Ed Sheeran
Genre

















: Pop
ContentType














: Music Video
Recorded date













: 2014
Copyright















: Ed Sheeran
Cover

















: Yes
Make

















: MeRaDil
oday

















: 07-10-2014 UK
labl

















: Asylum Records . Atlantic Records
release
















: UK - october 7 - 2014
Part_ID
















: Thinking Out Loud

Video
ID


















: 1
Format
















: AVC
Format/Info














: Advanced Video Codec
Format profile












: [email protected]/* */
Format settings, CABAC








: Yes
Format settings, ReFrames







: 2 frames
Codec ID















: avc1
Codec ID/Info













: Advanced Video Coding
Duration















: 4mn 44s
Bit rate















: 4 107 Kbps
Width

















: 1 920 pixels
Height
















: 1 080 pixels
Display aspect ratio









: 16:9
Frame rate mode












: Variable
Frame rate














: 23.976 fps
Minimum frame rate










: 23.974 fps
Maximum frame rate










: 23.981 fps
Color space














: YUV
Chroma subsampling










: 4:2:0
Bit depth















: 8 bits
Scan type















: Progressive
Bits/(Pixel*Frame)










: 0.083
Stream size














: 140 MiB (94%)

Audio
ID


















: 2
Format
















: AAC
Format/Info














: Advanced Audio Codec
Format profile












: LC
Codec ID















: 40
Duration















: 4mn 44s
Bit rate mode













: Constant
Bit rate















: 256 Kbps
Channel(s)














: 2 channels
Channel positions











: Front: L R
Sampling rate













: 44.1 KHz
Compression mode











: Lossy
Stream size














: 8.69 MiB (6%)
https://thepiratebay.se/user/MeRaDil

Ed Sheeran * X * Pop * Ballad * Promo

:)