Eiffel 65 – Blue (Da Ba Dee) (h264/mp4)


Size : 95.69 MiB (100339923 Bytes)

General

Format












: MPEG-4
Format profile








: Base Media
Codec ID











: isom
File size











: 95.7 MiB
Duration











: 3mn 38s
Overall bit rate







: 3 668 Kbps
Encoded date









: UTC 2012-05-26 18:35:37
Tagged date










: UTC 2012-05-26 18:35:37

Video
ID














: 1
Format












: AVC
Format/Info










: Advanced Video Codec
Format profile








: [email protected]/* */
Format settings, CABAC




: Yes
Format settings, ReFrames



: 2 frames
Codec ID











: avc1
Codec ID/Info









: Advanced Video Coding
Duration











: 3mn 38s
Bit rate mode









: Variable
Bit rate











: 3 561 Kbps
Maximum bit rate







: 6 297 Kbps
Width













: 720 pixels
Height












: 576 pixels
Display aspect ratio





: 4:3
Original display aspect ratio

: 4:3
Frame rate mode








: Constant
Frame rate










: 25.000 fps
Standard











: PAL
Color space










: YUV
Chroma subsampling






: 4:2:0
Bit depth











: 8 bits
Scan type











: Progressive
Bits/(Pixel*Frame)






: 0.343
Stream size










: 93.8 MiB (98%)


Audio
ID














: 2
Format












: AAC
Format/Info










: Advanced Audio Codec
Format profile








: LC
Codec ID











: 40
Duration











: 3mn 38s
Bit rate mode









: Variable
Bit rate











: 66.15 Kbps
Maximum bit rate







: 82.7 Kbps
Channel(s)










: 2 channels
Channel positions







: Front: L R
Sampling rate









: 48.0 KHz
Compression mode







: Lossy
Stream size










: 1.76 MiB (2%)