Elio Petri’s La Classe Operaia Va In Paradiso (1971) – DVDRip x2


Size : 2.78 GiB (2987141847 Bytes)

A conscientious factory worker gets his finger cut off by a machine. Although the physical handicap is not serious, the accident causes him to become more involved in political and revolutionary groups.



Technical x264:


Format : MPEG-4
Format profile : Base Media / Version 2
Codec ID : mp42
File size : 1.51 GiB
Duration : 1h 50mn
Overall bit rate mode : Variable
Overall bit rate : 1 949 Kbps
Encoded date : UTC 2016-05-27 11:05:11
Tagged date : UTC 2016-05-27 11:05:11
Writing application : HandBrake 0.10.2 2015061100

Video
ID : 1
Format : AVC
Format/Info : Advanced Video Codec
Format profile : [email protected]/* */
Format settings, CABAC : Yes
Format settings, ReFrames : 4 frames
Codec ID : avc1
Codec ID/Info : Advanced Video Coding
Duration : 1h 50mn
Bit rate : 1 800 Kbps
Width : 720 pixels
Height : 548 pixels
Display aspect ratio : 1.85:1
Original display aspect ratio : 1.85:1
Frame rate mode : Constant
Frame rate : 50.000 fps
Color space : YUV
Chroma subsampling : 4:2:0
Bit depth : 8 bits
Scan type : Progressive
Bits/(Pixel*Frame) : 0.091
Stream size : 1.39 GiB (92%)
Writing library : x264 core 142 r2479 dd79a61
Encoded date : UTC 2016-05-27 11:05:11
Tagged date : UTC 2016-05-27 11:05:11
Color range : Limited
Color primaries : BT.601 NTSC
Transfer characteristics : BT.709
Matrix coefficients : BT.601

Audio
ID : 2
Format : AAC
Format/Info : Advanced Audio Codec
Format profile : LC
Codec ID : 40
Duration : 1h 50mn
Bit rate mode : Variable
Bit rate : 144 Kbps
Channel(s) : 2 channels
Channel positions : Front: L R
Sampling rate : 48.0 KHz
Compression mode : Lossy
Stream size : 112 MiB (7%)
Title : Stereo / Stereo
Encoded date : UTC 2016-05-27 11:05:11
Tagged date : UTC 2016-05-27 11:05:11

_____________________________


Technical x265:


Format : MPEG-4
Format profile : Base Media / Version 2
Codec ID : mp42
File size : 1.28 GiB
Duration : 1h 50mn
Overall bit rate mode : Variable
Overall bit rate : 1 653 Kbps
Encoded date : UTC 2016-05-27 20:28:55
Tagged date : UTC 2016-05-27 20:28:55
Writing application : HandBrake 20160211184813-ffd8cb1-master 2016021301

Video
ID : 1
Format : HEVC
Format/Info : High Efficiency Video Coding
Format profile : Main [email protected]/* [email protected]
Codec ID : hev1
Codec ID/Info : High Efficiency Video Coding
Duration : 1h 50mn
Bit rate : 1 502 Kbps
Width : 720 pixels
Height : 548 pixels
Display aspect ratio : 1.85:1
Original display aspect ratio : 1.85:1
Frame rate mode : Constant
Frame rate : 50.000 fps
Color space : YUV
Chroma subsampling : 4:2:0
Bit depth : 10 bits
Bits/(Pixel*Frame) : 0.076
Stream size : 1.16 GiB (91%)
Writing library : x265 1.9:[Mac OS X][clang 7.0.2][64 bit] 10bit
Encoded date : UTC 2016-05-27 20:28:55
Tagged date : UTC 2016-05-27 20:28:55
Color range : Limited
Color primaries : BT.601 NTSC
Transfer characteristics : BT.709
Matrix coefficients : BT.601

Audio
ID : 2
Format : AAC
Format/Info : Advanced Audio Codec
Format profile : LC
Codec ID : 40
Duration : 1h 50mn
Bit rate mode : Variable
Bit rate : 144 Kbps
Channel(s) : 2 channels
Channel positions : Front: L R
Sampling rate : 48.0 KHz
Compression mode : Lossy
Stream size : 112 MiB (9%)
Title : Stereo / Stereo
Encoded date : UTC 2016-05-27 20:28:55
Tagged date : UTC 2016-05-27 20:28:55