Ellie Goulding – On My Mind (2015.Pop)


Size : 111.1 MiB (116498732 Bytes)

ELLIE GOULDING - ON MY MIND

http://gifyu.com/images/Ellie Goulding-2.png
http://gifyu.com/images/Ellie Goulding-3.png
http://gifyu.com/images/Ellie Goulding-4.png


MEDIA INFO
General
Ellie Goulding - On My Mind
Format
















: MPEG-4
Format profile












: Base Media
Codec ID















: isom
File size















: 111 MiB
Duration















: 4mn 4s
Overall bit rate











: 3 808 Kbps
MusicVid name













: On My Mind
Album

















: Delirium
Performer















: Ellie Goulding
Genre

















: Pop
ContentType














: Music Video
Recorded date













: 2015
Rating
















: ***
Make

















: MeRaDil
Release time













: UK . september 21 . 2015

Video
ID


















: 1
Format
















: AVC
Format/Info














: Advanced Video Codec
Format profile












: [email protected]/* */
Format settings, CABAC








: Yes
Format settings, ReFrames







: 2 frames
Codec ID















: avc1
Codec ID/Info













: Advanced Video Coding
Duration















: 4mn 4s
Bit rate















: 3 546 Kbps
Width

















: 1 920 pixels
Height
















: 1 080 pixels
Display aspect ratio









: 16:9
Frame rate mode












: Variable
Frame rate














: 23.976 fps
Minimum frame rate










: 23.974 fps
Maximum frame rate










: 23.981 fps
Color space














: YUV
Chroma subsampling










: 4:2:0
Bit depth















: 8 bits
Scan type















: Progressive
Bits/(Pixel*Frame)










: 0.071
Stream size














: 103 MiB (93%)

Audio
ID


















: 2
Format
















: AAC
Format/Info














: Advanced Audio Codec
Format profile












: LC
Codec ID















: 40
Duration















: 4mn 4s
Bit rate mode













: Constant
Bit rate















: 256 Kbps
Channel(s)














: 2 channels
Channel positions











: Front: L R
Sampling rate













: 44.1 KHz
Compression mode











: Lossy
Stream size














: 7.47 MiB (7%)

Ellie Goulding * Delirium * Promo