Empire 2015 S03E07 720p WEB-DL HEVC 2CH x265


Size : 333.14 MiB (349326942 Bytes)

Source:Empire 2015 S03E07 1080p WEB-DL DD5.1 x264-DRACULA (1.79 GB)


Complete name: Empire.2015.S03E07.720p.WEB-DL.HEVC.2CH.x265.mkv
Format
















: Matroska
Format version












: Version 4 / Version 2
File size















: 333 MiB
Duration















: 44mn 42s
Overall bit rate











: 1 042 Kbps
Writing application










: Lavf57.25.100

Video

ID


















: 1
Format
















: V_MPEGH/ISO/HEVC
Duration















: 44mn 42s
Bit rate















: 829 Kbps
Width

















: 1 274 pixels
Height
















: 720 pixels
Display aspect ratio









: 16:9
Frame rate














: 25.000 fps
Bits/(Pixel*Frame)










: 0.036
Stream size














: 265 MiB (80%)
Default
















: Yes
Forced
















: No
DURATION















: 00:44:42.411000000

Audio

ID


















: 2
Format
















: AC-3
Format/Info














: Audio Coding 3
Mode extension












: CM (complete main)
Format settings, Endianness






: Big
Codec ID















: A_AC3
Duration















: 44mn 42s
Bit rate mode













: Constant
Bit rate















: 192 Kbps
Channel(s)














: 2 channels
Channel positions











: Front: L R
Sampling rate













: 48.0 KHz
Bit depth















: 16 bits
Compression mode











: Lossy
Stream size














: 61.4 MiB (18%)
Writing library












: Lavc57.24.102 ac3
Default
















: Yes
Forced
















: No
DURATION















: 00:44:42.431000000

Text

ID


















: 3
Codec ID















: S_TEXT/ASS
Language















: English