Enrique Iglesias Ft. Romeo Santos – Loco [Music Video] 1080p [Sb


Size : 69.05 MiB (72399021 Bytes)

[IMG]http://yuq.me/users/18/139/M2hZOpdoGn.png[/IMG]

General
Complete name













: Enrique Iglesias Ft. Romeo Santos - Loco [Music Video] 1080p [Sbyky].mp4
Format
















: MPEG-4
Format profile












: Base Media / Version 2
Codec ID















: mp42
File size















: 69.0 MiB
Duration















: 4mn 8s
Overall bit rate mode









: Variable
Overall bit rate











: 2 329 Kbps
Encoded date













: UTC 2013-08-24 08:07:44
Tagged date














: UTC 2013-08-24 08:07:44

Video
ID


















: 1
Format
















: AVC
Format/Info














: Advanced Video Codec
Format profile












: [email protected]/* */
Format settings, CABAC








: Yes
Format settings, ReFrames







: 1 frame
Format settings, GOP









: M=1, N=48
Codec ID















: avc1
Codec ID/Info













: Advanced Video Coding
Duration















: 4mn 8s
Bit rate















: 2 135 Kbps
Maximum bit rate











: 5 528 Kbps
Width

















: 1 920 pixels
Height
















: 1 080 pixels
Display aspect ratio









: 16:9
Frame rate mode












: Constant
Frame rate














: 23.976 fps
Color space














: YUV
Chroma subsampling










: 4:2:0
Bit depth















: 8 bits
Scan type















: Progressive
Bits/(Pixel*Frame)










: 0.043
Stream size














: 63.3 MiB (92%)
Tagged date














: UTC 2013-08-24 08:07:50

Audio
ID


















: 2
Format
















: AAC
Format/Info














: Advanced Audio Codec
Format profile












: LC
Codec ID















: 40
Duration















: 4mn 8s
Bit rate mode













: Variable
Bit rate















: 192 Kbps
Maximum bit rate











: 202 Kbps
Channel(s)














: 2 channels
Channel positions











: Front: L R
Sampling rate













: 44.1 KHz
Compression mode











: Lossy
Stream size














: 5.69 MiB (8%)
Title

















: IsoMedia File Produced by Google, 5-11-2011
Encoded date













: UTC 2013-08-24 08:07:48
Tagged date














: UTC 2013-08-24 08:07:50

Shared By Sbyky
[IMG]http://yuq.me/users/18/139/0aq32UMZvX.gif[/IMG]
[IMG]http://yuq.me/users/18/139/bQg62viaEG.gif[/IMG]