Enrique Iglesias – Full Concert – live @ Odyssey Arena (Belfast,


Size : 912.23 MiB (956541974 Bytes)

Általános
Complete name













:Enrique Iglesias - Full Concert - live @ Odyssey Arena (Belfast, 2007).mp4

Format
















: MPEG-4
Format profile












: Base Media / Version 2
Codec ID















: mp42
File size















: 912 MiB
Duration















: 1 óra
Overall bit rate mode









: változó
Overall bit rate











: 2 125 Kbps
Encoded date













: UTC 2013-05-01 00:40:08
Tagged date














: UTC 2013-05-01 00:40:08


Kép
ID


















: 1
Format
















: AVC
Format/Info














: Advanced Video Codec
Format profile












: [email protected]/* */
Format settings, CABAC








: igen
Format settings, ReFrames







: 1 képkocka
Codec ID















: avc1
Codec ID/Info













: Advanced Video Coding
Duration















: 1 óra
Bit rate















: 1 930 Kbps
Maximum bit rate











: 6 166 Kbps
Width

















: 1 280 képpont
Height
















: 720 képpont
Display aspect ratio









: 16:9
Frame rate mode












: állandó
Frame rate














: 29,970 fps
Color space














: YUV
Chroma subsampling










: 4:2:0
Bit depth















: 8 bit
Scan type















: folytonos
Bits/(Pixel*Frame)










: 0.070
Stream size














: 829 MiB (91%)
Tagged date














: UTC 2013-05-01 00:48:47

Hang
ID


















: 2
Format
















: AAC
Format/Info














: Advanced Audio Codec
Format profile












: LC
Codec ID















: 40
Duration















: 1 óra
Bit rate mode













: változó
Bit rate















: 192 Kbps
Maximum bit rate











: 201 Kbps
Channel(s)














: 2 csatorna
Channel positions











: Front: L R
Sampling rate













: 44,1 KHz
Stream size














: 82,4 MiB (9%)
Encoded date













: UTC 2013-05-01 00:45:23
Tagged date














: UTC 2013-05-01 00:48:47