Epic (2013) [3D] [HSBS] [Greek Audio]


Size : 1.83 GiB (1969534429 Bytes)

General

Complete name













: Epic.2013.1080p.3D.HSBS.BluRay.x264.YIFY.GreekAudio.mkv
Format
















: Matroska
Format version












: Version 4 / Version 2
File size















: 1.83 GiB
Duration















: 1h 38mn
Overall bit rate











: 2 672 Kbps
Encoded date













: UTC 2013-08-29 20:48:32
Writing application










: mkvmerge v6.3.0 ('You can't stop me!') built on Jun 28 2013 20:09:41
Writing library












: libebml v1.3.0 + libmatroska v1.4.0

Video

ID


















: 1
Format
















: AVC
Format/Info














: Advanced Video Codec
Format profile












: [email protected]/* */
Format settings, CABAC








: Yes
Format settings, ReFrames







: 4 frames
Codec ID















: V_MPEG4/ISO/AVC
Duration















: 1h 38mn
Bit rate















: 2 193 Kbps
Width

















: 1 920 pixels
Height
















: 1 080 pixels
Display aspect ratio









: 16:9
Frame rate mode












: Constant
Frame rate














: 25.000 fps
Original frame rate










: 23.976 fps
Color space














: YUV
Chroma subsampling










: 4:2:0
Bit depth















: 8 bits
Scan type















: Progressive
Bits/(Pixel*Frame)










: 0.042
Stream size














: 1.53 GiB (84%)
Writing library












: x264 core 132 r2 76a5c3a
Encoding settings











: cabac=1 // deblock=1:-1:-1 / analyse=0x3:0x133 / me=umh / subme=9 / psy=1 / psy_rd=1.00:0.15 // me_range=24 / chroma_me=1 / trellis=2 / 8x8dct=1 / cqm=0 / deadzone=21,11 / fast_pskip=0 / chroma_qp_offset=-3 / threads=36 / lookahead_threads=3 / sliced_threads=0 / nr=0 / decimate=1 / interlaced=0 / bluray_compat=0 / constrained_intra=0 / bframes=3 / b_pyramid=2 / b_adapt=2 / b_bias=0 / direct=3 / weightb=1 / open_gop=0 / weightp=2 / keyint=250 / keyint_min=23 / scenecut=40 / intra_refresh=0 / rc_lookahead=60 / rc=2pass / mbtree=1 / bitrate=2193 / ratetol=1.0 / qcomp=0.60 / qpmin=0 / qpmax=69 / qpstep=4 / cplxblur=20.0 / qblur=0.5 / vbv_maxrate=31250 / vbv_bufsize=31250 / nal_hrd=none / ip_ratio=1.40 / aq=1:1.00
Default
















: Yes
Forced
















: No
Color primaries












: BT.709
Matrix coefficients










: BT.709

Audio

ID


















: 2
Format
















: AC-3
Format/Info














: Audio Coding 3
Mode extension












: CM (complete main)
Format settings, Endianness






: Big
Codec ID















: A_AC3
Duration















: 1h 38mn
Bit rate mode













: Constant
Bit rate















: 384 Kbps
Channel(s)














: 6 channels
Channel positions











: Front: L C R, Side: L R, LFE
Sampling rate













: 48.0 KHz
Bit depth















: 16 bits
Compression mode











: Lossy
Stream size














: 270 MiB (14%)
Default
















: Yes
Forced
















: No