Farruko – Cositas Que Haciamos (h264/mp4)


Size : 78.37 MiB (82174765 Bytes)

General


Format












: MPEG-4
Format profile








: Base Media
Codec ID











: isom
File size











: 78.4 MiB
Duration











: 4mn 16s
Overall bit rate







: 2 560 Kbps
Encoded date









: UTC 2012-03-11 23:50:57
Tagged date










: UTC 2012-03-11 23:50:57

Video
ID














: 1
Format












: AVC
Format/Info










: Advanced Video Codec
Format profile








: [email protected]/* */
Format settings, CABAC




: Yes
Format settings, ReFrames



: 2 frames
Codec ID











: avc1
Codec ID/Info









: Advanced Video Coding
Duration











: 4mn 16s
Bit rate mode









: Variable
Bit rate











: 2 553 Kbps
Maximum bit rate







: 4 816 Kbps
Width













: 720 pixels
Height












: 480 pixels
Display aspect ratio





: 16:9
Original display aspect ratio

: 16:9
Frame rate mode








: Constant
Frame rate










: 23.976 fps
Standard











: NTSC
Color space










: YUV
Chroma subsampling






: 4:2:0
Bit depth











: 8 bits
Scan type











: Progressive
Bits/(Pixel*Frame)






: 0.308
Stream size










: 76.0 MiB (97%)


Audio
ID














: 2
Format












: AAC
Format/Info










: Advanced Audio Codec
Format profile








: LC
Codec ID











: 40
Duration











: 4mn 16s
Bit rate mode









: Variable
Bit rate











: 69.8 Kbps
Maximum bit rate







: 82.0 Kbps
Channel(s)










: 2 channels
Channel positions







: Front: L R
Sampling rate









: 44.1 KHz
Compression mode







: Lossy
Stream size










: 2.14 MiB (3%)