Farruko – Dale Que Voy (h264/mp4)


Size : 55.9 MiB (58613729 Bytes)

General

Format











: MPEG-4
Format profile







: Base Media
Codec ID










: isom
File size










: 55.9 MiB
Duration










: 3mn 43s
Overall bit rate mode




: Variable
Overall bit rate






: 2 094 Kbps
Encoded date








: UTC 2012-12-09 16:52:21
Tagged date









: UTC 2012-12-09 16:52:21

Video
ID













: 1
Format











: AVC
Format/Info









: Advanced Video Codec
Format profile







: [email protected]/* */
Format settings, CABAC



: Yes
Format settings, ReFrames


: 2 frames
Codec ID










: avc1
Codec ID/Info








: Advanced Video Coding
Duration










: 3mn 43s
Bit rate










: 1 909 Kbps
Maximum bit rate






: 3 545 Kbps
Width












: 720 pixels
Height











: 480 pixels
Display aspect ratio




: 16:9
Original display aspect ratio
: 16:9
Frame rate mode







: Constant
Frame rate









: 24.000 fps
Standard










: NTSC
Color space









: YUV
Chroma subsampling





: 4:2:0
Bit depth










: 8 bits
Scan type










: Progressive
Bits/(Pixel*Frame)





: 0.230
Stream size









: 51.0 MiB (91%)


Audio
ID













: 2
Format











: AAC
Format/Info









: Advanced Audio Codec
Format profile







: LC
Codec ID










: 40
Duration










: 3mn 43s
Bit rate mode








: Variable
Bit rate










: 181 Kbps
Maximum bit rate






: 245 Kbps
Channel(s)









: 2 channels
Channel positions






: Front: L R
Sampling rate








: 44.1 KHz
Compression mode






: Lossy
Stream size









: 4.83 MiB (9%)