Fidlar – 2016-06-10 Bonnaroo Festival 720p


Size : 1.13 GiB (1217208376 Bytes)

Here is a nice webcast. Check my account for more Bonnaroo webcasts.

Please enjoy, share with friends and please seed :)

FIDLAR
Bonnaroo Music & Arts Festival
Great Stage Park
Manchester, Tennessee
June 10, 2016

Lineage: LIVE Webcast -> FFMPEG -> .ts
Video: 1280x720 16:9 2340 Kbps 30.00 fps
Audio: AAC 160 Kbps 48.0 KHz stereo

Setlist: UNKNOWN

General
ID


















: 1 (0x1)
Complete name













: FIDLAR - 2016-06-10 Bonnaroo, Manchester, TN, USA Complete Webcast [720p].ts
Format
















: MPEG-TS
File size















: 1.13 GiB
Duration















: 59mn 25s
Overall bit rate mode









: Variable
Overall bit rate











: 2 731 Kbps

Video
ID


















: 256 (0x100)
Menu ID
















: 1 (0x1)
Format
















: AVC
Format/Info














: Advanced Video Codec
Format profile












: [email protected]/* */
Format settings, CABAC








: Yes
Format settings, ReFrames







: 4 frames
Codec ID















: 27
Duration















: 59mn 25s
Bit rate mode













: Constant
Bit rate















: 2 340 Kbps
Width

















: 1 280 pixels
Height
















: 720 pixels
Display aspect ratio









: 16:9
Frame rate














: 30.000 fps
Color space














: YUV
Chroma subsampling










: 4:2:0
Bit depth















: 8 bits
Scan type















: Progressive
Bits/(Pixel*Frame)










: 0.085
Stream size














: 1.01 GiB (89%)

Audio
ID


















: 257 (0x101)
Menu ID
















: 1 (0x1)
Format
















: AAC
Format/Info














: Advanced Audio Codec
Format version












: Version 4
Format profile












: LC
Muxing mode














: ADTS
Codec ID















: 15
Duration















: 59mn 25s
Bit rate mode













: Variable
Bit rate















: 157 Kbps
Channel(s)














: 2 channels
Channel positions











: Front: L R
Sampling rate













: 48.0 KHz
Compression mode











: Lossy
Delay relative to video








: -973ms
Stream size














: 66.8 MiB (6%)

Menu
ID


















: 4096 (0x1000)
Menu ID
















: 1 (0x1)
Duration















: 59mn 25s
List

















: 256 (0x100) (AVC) / 257 (0x101) (AAC)
Service name













: Service01
Service provider











: FFmpeg
Service type













: digital television