Fifth Harmony ft. Ty Dolla Sign – Work from Home (2016)


Size : 117.87 MiB (123598045 Bytes)

FIFTH HARMONY ft.TY DOLLA SIGN - WORK FROM HOME

http://gifyu.com/images/5Harmony.png


MEDIA INFO
General
Fifth Harmony ft. Ty Dolla Sign - Work from Home
Format
















: MPEG-4
Format profile












: Base Media
Codec ID















: isom (isom/iso2/avc1/mp41)
File size















: 118 MiB
Duration















: 3mn 40s
Overall bit rate











: 4 494 Kbps
MusicVid name













: Work from Home
Album

















: 7/27
Performer















: Fifth Harmony ft. Ty Dolla $ign
Make

















: MeRaDil
Genre

















: Pop
ContentType














: Music Video
Recorded date













: 2016
Writing application










: Lavf56.32.100 / MeRaDil
Rating
















: ***
Cover

















: Yes
Artist url














: http://fifthharmonyofficial.com/
Release time













: USA . february 26 . 2016

Video
ID


















: 1
Format
















: AVC
Format/Info














: Advanced Video Codec
Format profile












: [email protected]/* */
Format settings, CABAC








: Yes
Format settings, ReFrames







: 2 frames
Codec ID















: avc1
Codec ID/Info













: Advanced Video Coding
Duration















: 3mn 39s
Bit rate















: 4 216 Kbps
Width

















: 1 920 pixels
Height
















: 1 080 pixels
Display aspect ratio









: 16:9
Frame rate mode












: Variable
Frame rate














: 23.976 (24000/1001) fps
Color space














: YUV
Chroma subsampling










: 4:2:0
Bit depth















: 8 bits
Scan type















: Progressive
Bits/(Pixel*Frame)










: 0.085
Stream size














: 111 MiB (94%)
Color range














: Limited

Audio
ID


















: 2
Format
















: AAC
Format/Info














: Advanced Audio Codec
Format profile












: LC
Codec ID















: 40
Duration















: 3mn 40s
Bit rate mode













: Constant
Bit rate















: 256 Kbps
Channel(s)














: 2 channels
Channel positions











: Front: L R
Sampling rate













: 44.1 KHz
Frame rate














: 43.066 fps (1024 spf)
Compression mode











: Lossy
Stream size














: 6.71 MiB (6%)
Default
















: Yes
Alternate group












: 1