Fifth Harmony – Miss Movin’ On [Music Video] 1080p [Sbyky]


Size : 145.57 MiB (152640247 Bytes)

[IMG]http://yuq.me/users/18/139/jJZdmAslHc.png[/IMG]

General
Complete name













: Fifth Harmony - Miss Movin' On [Music Video] 1080p [Sbyky].mp4
Format
















: MPEG-4
Format profile












: Base Media / Version 2
Codec ID















: mp42
File size















: 146 MiB
Duration















: 3mn 19s
Overall bit rate mode









: Variable
Overall bit rate











: 6 129 Kbps
Encoded date













: UTC 2013-07-11 19:40:38
Tagged date














: UTC 2013-07-11 19:40:38

Video
ID


















: 1
Format
















: AVC
Format/Info














: Advanced Video Codec
Format profile












: [email protected]/* */
Format settings, CABAC








: Yes
Format settings, ReFrames







: 1 frame
Codec ID















: avc1
Codec ID/Info













: Advanced Video Coding
Duration















: 3mn 19s
Bit rate















: 5 934 Kbps
Maximum bit rate











: 13.0 Mbps
Width

















: 1 920 pixels
Height
















: 1 080 pixels
Display aspect ratio









: 16:9
Frame rate mode












: Constant
Frame rate














: 23.976 fps
Color space














: YUV
Chroma subsampling










: 4:2:0
Bit depth















: 8 bits
Scan type















: Progressive
Bits/(Pixel*Frame)










: 0.119
Stream size














: 141 MiB (97%)
Tagged date














: UTC 2013-07-11 19:40:58

Audio
ID


















: 2
Format
















: AAC
Format/Info














: Advanced Audio Codec
Format profile












: LC
Codec ID















: 40
Duration















: 3mn 19s
Bit rate mode













: Variable
Bit rate















: 192 Kbps
Maximum bit rate











: 201 Kbps
Channel(s)














: 2 channels
Channel positions











: Front: L R
Sampling rate













: 44.1 KHz
Compression mode











: Lossy
Stream size














: 4.56 MiB (3%)
Title

















: IsoMedia File Produced by Google, 5-11-2011
Encoded date













: UTC 2013-07-11 19:40:53
Tagged date














: UTC 2013-07-11 19:40:58

Shared By Sbyky
[IMG]http://yuq.me/users/18/139/0aq32UMZvX.gif[/IMG]
[IMG]http://yuq.me/users/18/139/bQg62viaEG.gif[/IMG]