Flume ft. Kai – Never Be Like You (Electronic 2016)


Size : 49.29 MiB (51687644 Bytes)

FLUME ft.KAI - NEVER BE LIKE YOU

http://www.topy.se/images/flumec6b40.png


MEDIA INFO
General
Flume ft. Kai - Never Be Like You
Format
















: MPEG-4
Format profile












: Base Media
Codec ID















: isom (isom/iso2/avc1/mp41)
File size















: 49.3 MiB
Duration















: 3mn 52s
Overall bit rate











: 1 779 Kbps
MusicVid name













: Never Be Like You
Performer















: Flume ft. Kai
Make

















: MeRaDil
Genre

















: Electronic
ContentType














: Music Video
Recorded date













: 2016
Writing application










: MeRaDil
Cover

















: Yes
Release time













: Australia - february 14 - 2016

Video
ID


















: 1
Format
















: AVC
Format/Info














: Advanced Video Codec
Format profile












: [email protected]/* */
Format settings, CABAC








: Yes
Format settings, ReFrames







: 3 frames
Codec ID















: avc1
Codec ID/Info













: Advanced Video Coding
Duration















: 3mn 52s
Bit rate















: 1 507 Kbps
Width

















: 1 920 pixels
Height
















: 1 080 pixels
Display aspect ratio









: 16:9
Frame rate mode












: Constant
Frame rate














: 25.000 fps
Color space














: YUV
Chroma subsampling










: 4:2:0
Bit depth















: 8 bits
Scan type















: Progressive
Bits/(Pixel*Frame)










: 0.029
Stream size














: 41.7 MiB (85%)

Audio
ID


















: 2
Format
















: AAC
Format/Info














: Advanced Audio Codec
Format profile












: LC
Codec ID















: 40
Duration















: 3mn 52s
Bit rate mode













: Constant
Bit rate















: 256 Kbps
Channel(s)














: 2 channels
Channel positions











: Front: L R
Sampling rate













: 44.1 KHz
Frame rate














: 43.066 fps (1024 spf)
Compression mode











: Lossy
Stream size














: 7.09 MiB (14%)
Default
















: Yes
Alternate group












: 1