Formula 1 2013 Australian Grand Prix Practice 2 – F1


Size : 1.07 GiB (1150017879 Bytes)

The P2 session of the start of the new F1 season aired on Sky F1.

Technical Information :

Video

ID














: 0
Format












: AVI
Format profile








: Advanced [email protected]/* */
Format settings, BVOP





: Yes
Format settings, QPel





: No
Format settings, GMC





: No warppoints
Format settings, Matrix




: Default (H.263)
Muxing mode










: Packed bitstream
Codec ID











: XVID
Codec ID/Hint









: XviD
Duration











: 1h 54mn
Bit rate











: 1 203 Kbps
Width













: 624 pixels
Height












: 352 pixels
Display aspect ratio





: 16:9
Frame rate










: 25.000 fps
Resolution










: 8 bits
Colorimetry










: 4:2:0
Scan type











: Progressive
Bits/(Pixel*Frame)






: 0.219
Stream size










: 984 MiB (90%)
Writing library








: XviD 1.2.1 (UTC 2008-12-04)

Audio

ID














: 1
Format












: MPEG Audio
Format version








: Version 1
Format profile








: Layer 3
Mode













: Joint stereo
Format_Settings_ModeExtension

: MS Stereo
Codec ID











: 55
Codec ID/Hint









: MP3
Duration











: 1h 54mn
Bit rate mode









: Constant
Bit rate











: 128 Kbps
Channel(s)










: 2 channels
Sampling rate









: 48.0 KHz
Stream size










: 105 MiB (10%)
Alignment











: Aligned on interleaves
Interleave, duration





: 40 ms (1.00 video frame)
Interleave, preload duration

: 480 ms


Screens :
http://i.imgur.com/Y1VEBM0.jpg
http://i.imgur.com/KrWio7h.jpg
http://i.imgur.com/39wEudn.jpg