Formula.1.2016×14.Italy.Qualifying.SkyF1HD.1080p50-smcgill1969


Size : 6.56 GiB (7040126884 Bytes)

Formula.1.2016x14.Italy.Qualifying.SkyF1HD.1080p50-smcgill1969:

Qualifying from the Italian Grand Prix at Monza.

Video
ID : 1
Format : AVC
Format/Info : Advanced Video Codec
Format profile : [email protected]/* */
Format settings, CABAC : Yes
Format settings, ReFrames : 2 frames
Format settings, GOP : M=3, N=24
Codec ID : avc1
Codec ID/Info : Advanced Video Coding
Duration : 55mn 2s
Duration_FirstFrame : 4ms
Bit rate mode : Variable
Bit rate : 5 999 Kbps
Maximum bit rate : 12.4 Mbps
Width : 1 920 pixels
Height : 1 080 pixels
Original height : 1 088 pixels
Display aspect ratio : 16:9
Original display aspect ratio : 16:9
Frame rate mode : Constant
Frame rate : 50.000 fps
Color space : YUV
Chroma subsampling : 4:2:0
Bit depth : 8 bits
Scan type : Progressive
Bits/(Pixel*Frame) : 0.058
Stream size : 2.31 GiB (96%)
Language : English
Encoded date : UTC 2016-09-03 10:47:37
Tagged date : UTC 2016-09-03 11:55:18

Audio
ID : 2
Format : AAC
Format/Info : Advanced Audio Codec
Format profile : LC
Codec ID : 40
Duration : 55mn 2s
Source duration : 55mn 2s
Bit rate mode : Constant
Bit rate : 256 Kbps
Channel(s) : 2 channels
Channel positions : Front: L R
Sampling rate : 48.0 KHz
Frame rate : 46.875 fps (1024 spf)
Compression mode : Lossy
Stream size : 99.8 MiB (4%)
Source stream size : 99.8 MiB (4%)
Language : English
Encoded date : UTC 2016-09-03 10:47:37
Tagged date : UTC 2016-09-03 11:55:18