Formula.1.2016×14.Italy.Teds.Qualifying.Notebook.SkyF1HD.1080p50


Size : 1.27 GiB (1362329958 Bytes)

Formula.1.2016x14.Italy.Teds.Qualifying.Notebook.SkyF1HD.1080p50-smcgill1969:

Ted Kravitz analyses all of the key talking points from qualifying at the 2016 Italian Grand Prix at Autodromo Nazionale Monza.

Video
ID : 1
Format : AVC
Format/Info : Advanced Video Codec
Format profile : [email protected]/* */
Format settings, CABAC : Yes
Format settings, ReFrames : 2 frames
Format settings, GOP : M=3, N=24
Codec ID : avc1
Codec ID/Info : Advanced Video Coding
Duration : 29mn 6s
Duration_FirstFrame : 19ms
Bit rate mode : Variable
Bit rate : 5 979 Kbps
Maximum bit rate : 12.4 Mbps
Width : 1 920 pixels
Height : 1 080 pixels
Original height : 1 088 pixels
Display aspect ratio : 16:9
Original display aspect ratio : 16:9
Frame rate mode : Constant
Frame rate : 50.000 fps
Color space : YUV
Chroma subsampling : 4:2:0
Bit depth : 8 bits
Scan type : Progressive
Bits/(Pixel*Frame) : 0.058
Stream size : 1.22 GiB (96%)
Language : English
Encoded date : UTC 2016-09-03 18:49:35
Tagged date : UTC 2016-09-03 19:20:07

Audio
ID : 2
Format : AAC
Format/Info : Advanced Audio Codec
Format profile : LC
Codec ID : 40
Duration : 29mn 6s
Bit rate mode : Constant
Bit rate : 256 Kbps
Channel(s) : 2 channels
Channel positions : Front: L R
Sampling rate : 48.0 KHz
Frame rate : 46.875 fps (1024 spf)
Compression mode : Lossy
Stream size : 52.7 MiB (4%)
Language : English
Encoded date : UTC 2016-09-03 18:49:35
Tagged date : UTC 2016-09-03 19:20:07