Formula.1.2016×17.Japan.Teds.Qualifying.Notebook.SkyF1HD.1080p50


Size : 1.25 GiB (1336829310 Bytes)

Formula.1.2016x17.Japan.Teds.Qualifying.Notebook.SkyF1HD.1080p50-smcgill1969:

Ted Kravitz gives his thoughts on qualifying at the 2016 Japanese Grand Prix at Suzuka Circuit.

Video
ID : 1
Format : AVC
Format/Info : Advanced Video Codec
Format profile : [email protected]/* */
Format settings, CABAC : Yes
Format settings, ReFrames : 2 frames
Format settings, GOP : M=3, N=24
Codec ID : avc1
Codec ID/Info : Advanced Video Coding
Duration : 28mn 31s
Duration_FirstFrame : 11ms
Bit rate mode : Variable
Bit rate : 5 987 Kbps
Maximum bit rate : 12.4 Mbps
Width : 1 920 pixels
Height : 1 080 pixels
Original height : 1 088 pixels
Display aspect ratio : 16:9
Original display aspect ratio : 16:9
Frame rate mode : Constant
Frame rate : 50.000 fps
Color space : YUV
Chroma subsampling : 4:2:0
Bit depth : 8 bits
Scan type : Progressive
Bits/(Pixel*Frame) : 0.058
Stream size : 1.19 GiB (96%)
Language : English
Encoded date : UTC 2016-10-08 10:16:27
Tagged date : UTC 2016-10-08 11:00:02

Audio
ID : 2
Format : AAC
Format/Info : Advanced Audio Codec
Format profile : LC
Codec ID : 40
Duration : 28mn 30s
Bit rate mode : Constant
Bit rate : 256 Kbps
Channel(s) : 2 channels
Channel positions : Front: L R
Sampling rate : 48.0 KHz
Frame rate : 46.875 fps (1024 spf)
Compression mode : Lossy
Stream size : 51.7 MiB (4%)
Language : English
Encoded date : UTC 2016-10-08 10:16:27
Tagged date : UTC 2016-10-08 11:00:02