Formula.1.2016×18.USA.Teds.Qualifying.Notebook.SkyF1HD.1080p50


Size : 1.29 GiB (1383811859 Bytes)

Formula.1.2016x18.USA.Teds.Qualifying.Notebook.SkyF1HD.1080p50-smcgill1969:

Ted Kravitz analyses all of the qualifying action from the 2016 United States Grand Prix at the Circuit of the Americas in Austin, Texas.

Video
ID : 1
Format : AVC
Format/Info : Advanced Video Codec
Format profile : [email protected]/* */
Format settings, CABAC : Yes
Format settings, ReFrames : 2 frames
Format settings, GOP : M=3, N=24
Codec ID : avc1
Codec ID/Info : Advanced Video Coding
Duration : 29 min 32 s
Bit rate mode : Variable
Bit rate : 5 984 kb/s
Maximum bit rate : 12.4 Mb/s
Width : 1 920 pixels
Height : 1 080 pixels
Original height : 1 088 pixels
Display aspect ratio : 16:9
Original display aspect ratio : 16:9
Frame rate mode : Constant
Frame rate : 50.000 FPS
Color space : YUV
Chroma subsampling : 4:2:0
Bit depth : 8 bits
Scan type : Progressive
Bits/(Pixel*Frame) : 0.058
Stream size : 1.23 GiB (96%)
Language : English
Encoded date : UTC 2016-10-23 06:22:51
Tagged date : UTC 2016-10-23 06:52:53

Audio
ID : 2
Format : AAC
Format/Info : Advanced Audio Codec
Format profile : LC
Codec ID : 40
Duration : 29 min 31 s
Duration_FirstFrame : 7 ms
Bit rate mode : Constant
Bit rate : 256 kb/s
Channel(s) : 2 channels
Channel positions : Front: L R
Sampling rate : 48.0 kHz
Frame rate : 46.875 FPS (1024 spf)
Compression mode : Lossy
Stream size : 53.5 MiB (4%)
Language : English
Encoded date : UTC 2016-10-23 06:22:51
Tagged date : UTC 2016-10-23 06:52:53