Formula.1.2016×21.Abu.Dhabi.Teds.Qualifying.Notebook.SkyF1.1080p


Size : 1.36 GiB (1462757107 Bytes)

Formula.1.2016x21.Abu.Dhabi.Teds.Qualifying.Notebook.SkyF1HD.1080p50-smcgill1969:

Ted Kravitz analyses all of the action from qualifying at the 2016 Abu Dhabi Grand Prix from Yas Marina Circuit.

Video
ID : 1
Format : AVC
Format/Info : Advanced Video Codec
Format profile : [email protected]/* */
Format settings, CABAC : Yes
Format settings, ReFrames : 2 frames
Format settings, GOP : M=3, N=24
Codec ID : avc1
Codec ID/Info : Advanced Video Coding
Duration : 31 min 17 s
Bit rate mode : Variable
Bit rate : 5 971 kb/s
Maximum bit rate : 12.4 Mb/s
Width : 1 920 pixels
Height : 1 080 pixels
Original height : 1 088 pixels
Display aspect ratio : 16:9
Original display aspect ratio : 16:9
Frame rate mode : Constant
Frame rate : 50.000 FPS
Color space : YUV
Chroma subsampling : 4:2:0
Bit depth : 8 bits
Scan type : Progressive
Bits/(Pixel*Frame) : 0.058
Stream size : 1.30 GiB (96%)
Language : English
Encoded date : UTC 2016-11-26 18:52:18
Tagged date : UTC 2016-11-26 19:24:28

Audio
ID : 2
Format : AAC
Format/Info : Advanced Audio Codec
Format profile : LC
Codec ID : 40
Duration : 31 min 17 s
Duration_FirstFrame : 8 ms
Bit rate mode : Constant
Bit rate : 256 kb/s
Channel(s) : 2 channels
Channel positions : Front: L R
Sampling rate : 48.0 kHz
Frame rate : 46.875 FPS (1024 spf)
Compression mode : Lossy
Stream size : 56.7 MiB (4%)
Language : English
Encoded date : UTC 2016-11-26 18:52:18
Tagged date : UTC 2016-11-26 19:24:28