Frankenweenie.Dublado.1080p.3D – DEJAVUBR


Size : 1.37 GiB (1474154135 Bytes)


Frankenweenie (2012)
- 1080p 3D DUBLADO - PT-BR - DEJAVUBR

=======================================================
==== w w w . t h e p i r a t e f i l m e s . c o m ====
=======================================================

Victor (Charlie Tahan) adora fazer filmes caseiros de terror, quase sempre estrelados por seu cachorro Sparky. Quando o cão morre atropelado, Victor fica triste e inconformado. Inspirado por uma aula de ciências que teve na escola, onde um professor mostra ser possível estimular os movimentos através da eletricidade, ele constrói uma máquina que permita reviver Sparky. O experimento dá certo, mas o que Victor não esperava era que seu melhor amigo voltasse com hábitos um pouco diferentes.

Lançamento: 2 de novembro de 2012 (1h 27min)
Dirigido por: Tim Burton
Com: Charlie Tahan, Winona Ryder, Martin Landau mais
Gênero: Animação , Comédia , Terror , Ficção científica
Nacionalidade: EUA
Formato: MP4
Qualidade: 1080p (Full HD) 3D(HSBS)
Idioma: PT-BR (Audio 5.1)
OBS: Filmes 3D só funcionam em TVs ou Monitores 3D

PARA MAIS FILMES VISITEM:
=======================================================
==== w w w . t h e p i r a t e f i l m e s . c o m ====
=======================================================

AO FIM DO DOWNLOAD FIQUE SEMEANDO/ENVIANDO, PARA QUE EU POSSA ENVIAR OUTROS FILMES COM QUALIDADE! Obrigado!





Video
ID


















: 1
Format
















: AVC
Format/Info














: Advanced Video Codec
Format profile












: [email protected]/* */
Format settings, CABAC








: Yes
Format settings, ReFrames







: 4 frames
Codec ID















: avc1
Codec ID/Info













: Advanced Video Coding
Duration















: 1h 26mn
Bit rate















: 2 202 Kbps
Width

















: 1 920 pixels
Height
















: 1 080 pixels
Display aspect ratio









: 16:9
Frame rate mode












: Variable
Frame rate














: 23.976 fps
Minimum frame rate










: 23.976 fps
Maximum frame rate










: 24.024 fps
Color space














: YUV
Chroma subsampling










: 4:2:0
Bit depth















: 8 bits
Scan type















: Progressive
Bits/(Pixel*Frame)










: 0.044
Stream size














: 1.34 GiB (97%)




Audio
ID


















: 2
Format
















: AAC
Format/Info














: Advanced Audio Codec
Format profile












: LC
Codec ID















: 40
Duration















: 1h 26mn
Bit rate mode













: Constant
Bit rate















: 54.1 Kbps
Channel(s)














: 2 channels
Channel positions











: Front: L R
Sampling rate













: 44.1 KHz
Compression mode











: Lossy
Stream size














: 33.6 MiB (2%)