Frozen.3D.2013.BRRip.1080p.HSBS.x264.Hun.Eng

Magnet Download Torrent Download

Size : 8.53 GiB (9157683383 Bytes)

Frozen.3D.2013.BRRip.1080p.HSBS.x264.Hun.Eng
http://www.imdb.com/title/tt2294629/

General
Unique ID















: 219169052878895037172195245526096062690 (0xA4E26C9735274F799A03489BB640A8E2)
Complete name













: F:Frozen.3D.2013.BRRip.1080p.HSBS.x264.Hun.EngFrozen 3D (2013) HSBS 1080p.mkv
Format
















: Matroska
Format version












: Version 4 / Version 2
File size















: 8.53 GiB
Duration















: 1h 42mn
Overall bit rate











: 11.9 Mbps
Encoded date













: UTC 2014-03-26 13:05:25
Writing application










: mkvmerge v6.7.0 ('Back to the Ground') 64bit built on Jan
8 2014 15:10:52
Writing library












: libebml v1.3.0 + libmatroska v1.4.1

Video
ID


















: 1
Format
















: AVC
Format/Info














: Advanced Video Codec
Format profile












: [email protected]/* */
MultiView_Count












: 2
MultiView_Layout











: Side by Side (left eye first)
Format settings, CABAC








: Yes
Format settings, ReFrames







: 2 frames
Format settings, GOP









: M=3, N=24
Codec ID















: V_MPEG4/ISO/AVC
Duration















: 1h 42mn
Bit rate















: 9 559 Kbps
Width

















: 1 920 pixels
Height
















: 1 080 pixels
Display aspect ratio









: 16:9
Frame rate mode












: Constant
Frame rate














: 23.976 fps
Color space














: YUV
Chroma subsampling










: 4:2:0
Bit depth















: 8 bits
Scan type















: Progressive
Bits/(Pixel*Frame)










: 0.192
Stream size














: 6.82 GiB (80%)
Title

















: Frozen 3D (2013) HSBS 1080p
Writing library












: x264 core
Default
















: Yes
Forced
















: No
Color primaries












: BT.709
Transfer characteristics







: BT.709
Matrix coefficients










: BT.709

Audio #1
ID


















: 2
Format
















: AC-3
Format/Info














: Audio Coding 3
Mode extension












: CM (complete main)
Format settings, Endianness






: Big
Codec ID















: A_AC3
Duration















: 1h 42mn
Bit rate mode













: Constant
Bit rate















: 640 Kbps
Channel count













: 6 channels
Channel positions











: Front: L C R, Side: L R, LFE
Sampling rate













: 48.0 KHz
Bit depth















: 16 bits
Compression mode











: Lossy
Stream size














: 468 MiB (5%)
Title

















: 5.1
Language















: Hungarian
Default
















: Yes
Forced
















: No

Audio #2
ID


















: 3
Format
















: DTS
Format/Info














: Digital Theater Systems
Mode

















: 16
Format settings, Endianness






: Big
Codec ID















: A_DTS
Duration















: 1h 42mn
Bit rate mode













: Constant
Bit rate















: 1 509 Kbps
Channel count













: 6 channels
Channel positions











: Front: L C R, Side: L R, LFE
Sampling rate













: 48.0 KHz
Bit depth















: 24 bits
Compression mode











: Lossy
Stream size














: 1.08 GiB (13%)
Title

















: DTS
Language















: English
Default
















: No
Forced
















: No

Text #1
ID


















: 4
Format
















: VobSub
Muxing mode














: zlib
Codec ID















: S_VOBSUB
Codec ID/Info













: The same subtitle format used on DVDs
Title

















: full 3D
Language















: Hungarian
Default
















: No
Forced
















: No

Text #2
ID


















: 5
Format
















: VobSub
Muxing mode














: zlib
Codec ID















: S_VOBSUB
Codec ID/Info













: The same subtitle format used on DVDs
Title

















: full 3D
Language















: English
Default
















: No
Forced
















: No
http://www.port.hu/jegvarazs_frozen/pls/fi/films.film_page?i_where=2&i_film_id=142567&i_city_id=-1&i_county_id=-1&i_topic_id=2