Frozen 3D – Kraina Lodu 3D (2013) [1080p.3D.OU.DTS] [ENG/POL]


Size : 15.7 GiB (16862586951 Bytes)

Anna, a fearless optimist, sets off on an epic journey - teaming up with rugged mountain man Kristoff and his loyal reindeer Sven - to find her sister Elsa, whose icy powers have trapped the kingdom of Arendelle in eternal winter. Encountering Everest-like conditions, mystical trolls and a hilarious snowman named Olaf, Anna and Kristoff battle the elements in a race to save the kingdom. From the outside Anna's sister, Elsa looks poised, regal and reserved, but in reality, she lives in fear as she wrestles with a mighty secret-she was born with the power to create ice and snow. It's a beautiful ability, but also extremely dangerous. Haunted by the moment her magic nearly killed her younger sister Anna, Elsa has isolated herself, spending every waking minute trying to suppress her growing powers. Her mounting emotions trigger the magic, accidentally setting off an eternal winter that she can't stop. She fears she's becoming a monster and that no one, not even her sister, can help her.

http://i.imgur.com/sdZ71pL.jpg
http://i.imgur.com/F21QqRO.jpg
http://i.imgur.com/AKPYzje.jpg
http://i.imgur.com/Y3eZ3OJ.jpg
http://i.imgur.com/Acz5jTa.jpg


Technical Data:

Format
















: Matroska
Format version












: Version 2
File size















: 15.7 GiB
Duration















: 1h 42mn
Overall bit rate mode









: Variable
Overall bit rate











: 22.0 Mbps
Movie name














: Frozen 3D (2013) (gixerk9)
Encoded date













: UTC 2014-03-27 21:55:02
Writing application










: mkvmerge v5.7.0 ('The Whirlwind') built on Jul
8 2012 20:08:51
Writing library












: libebml v1.2.3 + libmatroska v1.3.0

Video
ID


















: 1
Format
















: AVC
Format/Info














: Advanced Video Codec
Format profile












: [email protected]/* */
Format settings, CABAC








: Yes
Format settings, ReFrames







: 2 frames
Format settings, GOP









: M=3, N=24
Codec ID















: V_MPEG4/ISO/AVC
Duration















: 1h 42mn
Width

















: 1 920 pixels
Height
















: 1 080 pixels
Display aspect ratio









: 16:9
Frame rate mode












: Constant
Frame rate














: 23.976 fps
Color space














: YUV
Chroma subsampling










: 4:2:0
Bit depth















: 8 bits
Scan type















: Progressive
Writing library












: x264 core
Default
















: Yes
Forced
















: No
Color primaries












: BT.709
Transfer characteristics







: BT.709
Matrix coefficients










: BT.709

Audio #1
ID


















: 2
Format
















: AC-3
Format/Info














: Audio Coding 3
Mode extension












: CM (complete main)
Format settings, Endianness






: Big
Codec ID















: A_AC3
Duration















: 1h 42mn
Bit rate mode













: Constant
Bit rate















: 640 Kbps
Channel(s)














: 6 channels
Channel positions











: Front: L C R, Side: L R, LFE
Sampling rate













: 48.0 KHz
Bit depth















: 16 bits
Compression mode











: Lossy
Delay relative to video








: 37ms
Stream size














: 468 MiB (3%)
Title

















: Dubbing PL
Language















: Polish
Default
















: Yes
Forced
















: No

Audio #2
ID


















: 3
Format
















: DTS
Format/Info














: Digital Theater Systems
Mode

















: 16
Format settings, Endianness






: Big
Codec ID















: A_DTS
Duration















: 1h 42mn
Bit rate mode













: Constant
Bit rate















: 1 509 Kbps
Channel(s)














: 6 channels
Channel positions











: Front: L C R, Side: L R, LFE
Sampling rate













: 48.0 KHz
Bit depth















: 24 bits
Compression mode











: Lossy
Delay relative to video








: 42ms
Stream size














: 1.08 GiB (7%)
Title

















: Dubbing PL DTS
Language















: Polish
Default
















: No
Forced
















: No

Audio #3
ID


















: 4
Format
















: AC-3
Format/Info














: Audio Coding 3
Mode extension












: CM (complete main)
Format settings, Endianness






: Big
Codec ID















: A_AC3
Duration















: 1h 42mn
Bit rate mode













: Constant
Bit rate















: 640 Kbps
Channel(s)














: 6 channels
Channel positions











: Front: L C R, Side: L R, LFE
Sampling rate













: 48.0 KHz
Bit depth















: 16 bits
Compression mode











: Lossy
Delay relative to video








: 37ms
Stream size














: 468 MiB (3%)
Title

















: English
Language















: English
Default
















: No
Forced
















: No

Audio #4
ID


















: 5
Format
















: DTS
Format/Info














: Digital Theater Systems
Format profile












: MA / Core
Mode

















: 16
Format settings, Endianness






: Big
Codec ID















: A_DTS
Duration















: 1h 42mn
Bit rate mode













: Variable
Bit rate















: Unknown / 1 509 Kbps
Channel(s)














: 8 channels / 6 channels
Channel positions











: Front: L C R, Side: L R, Back: L R, LFE / Front: L C R, Side: L R, LFE
Sampling rate













: 48.0 KHz
Bit depth















: 24 bits
Compression mode











: Lossless / Lossy
Delay relative to video








: 42ms
Title

















: English DTS HD MA
Language















: English
Default
















: No
Forced
















: No

Text #1
ID


















: 6
Format
















: PGS
Muxing mode














: zlib
Codec ID















: S_HDMV/PGS
Codec ID/Info













: The same subtitle format used on BDs/HD-DVDs
Title

















: Napisy PL 3D
Language















: Polish
Default
















: No
Forced
















: No

Text #2
ID


















: 7
Format
















: UTF-8
Codec ID















: S_TEXT/UTF8
Codec ID/Info













: UTF-8 Plain Text
Title

















: Napisy PL
Language















: Polish
Default
















: No
Forced
















: No