Frozen (Handheld).m4v


Size : 884.19 MiB (927144002 Bytes)

General
Complete name : Frozen (Handheld).m4v
Format : MPEG-4
Format profile : Base Media / Version 2
Codec ID : mp42
File size : 884 MiB
Duration : 1h 42mn
Overall bit rate mode : Variable
Overall bit rate : 1 209 Kbps
Movie name : Frozen
Performer : Chris Buck, Jennifer Lee
Composer : Christophe Beck
Executive producer : John Lasseter
Genre : Adventure, Animation, Musical, Family
ContentType : Short Film
Description : Young princess Anna of Arendelle dreams about finding true love at her sister Elsa’s coronation. Fate takes her on a dangerous journey in an attempt to end the eternal winter that has fallen over the kingdom. She's accompanied by ice delivery man Kristoff, his reindeer Sven, and snowman Olaf. On an adventure where she will find out what friendship, courage, family, and true love really means.
Recorded date : 2013-11-19
Writing application : HandBrake 6469svn 2014102701
Cover : Yes
Rating : None
LongDescription : Young princess Anna of Arendelle dreams about finding true love at her sister Elsa’s coronation. Fate takes her on a dangerous journey in an attempt to end the eternal winter that has fallen over the kingdom. She's accompanied by ice delivery man Kristoff, his reindeer Sven, and snowman Olaf. On an adventure where she will find out what friendship, courage, family, and true love really means.
ContentRating : mpaa|PG|200|


Video
ID : 1
Format : AVC
Format/Info : Advanced Video Codec
Format profile : [email protected]/* */
Format settings, CABAC : Yes
Format settings, ReFrames : 4 frames
Codec ID : avc1
Codec ID/Info : Advanced Video Coding
Duration : 1h 42mn
Bit rate : 1 034 Kbps
Width : 960 pixels
Height : 428 pixels
Display aspect ratio : 2.25:1
Frame rate mode : Variable
Frame rate : 23.976 fps
Minimum frame rate : 17.026 fps
Maximum frame rate : 23.981 fps
Color space : YUV
Chroma subsampling : 4:2:0
Bit depth : 8 bits
Scan type : Progressive
Bits/(Pixel*Frame) : 0.105
Stream size : 756 MiB (86%)
Writing library : x264 core 142 r2479 dd79a61
Encoding settings : cabac=1 / ref=4 / deblock=1:0:0 / analyse=0x3:0x133 / me=umh / subme=10 / psy=1 / psy_rd=1.00:0.15 / mixed_ref=1 / me_range=32 / chroma_me=1 / trellis=2 / 8x8dct=1 / cqm=0 / deadzone=21,11 / fast_pskip=1 / chroma_qp_offset=-3 / threads=12 / lookahead_threads=1 / sliced_threads=0 / nr=0 / decimate=1 / interlaced=0 / bluray_compat=0 / constrained_intra=0 / bframes=4 / b_pyramid=2 / b_adapt=2 / b_bias=0 / direct=3 / weightb=1 / open_gop=0 / weightp=2 / keyint=240 / keyint_min=24 / scenecut=40 / intra_refresh=0 / rc_lookahead=60 / rc=crf / mbtree=1 / crf=21.0 / qcomp=0.60 / qpmin=0 / qpmax=69 / qpstep=4 / vbv_maxrate=17500 / vbv_bufsize=17500 / crf_max=0.0 / nal_hrd=none / filler=0 / ip_ratio=1.40 / aq=1:1.00
Color primaries : BT.709
Transfer characteristics : BT.709
Matrix coefficients : BT.709

Audio
ID : 2
Format : AAC
Format/Info : Advanced Audio Codec
Format profile : LC
Codec ID : 40
Duration : 1h 42mn
Bit rate mode : Variable
Bit rate : 164 Kbps
Maximum bit rate : 308 Kbps
Channel(s) : 2 channels
Channel positions : Front: L R
Sampling rate : 48.0 KHz
Compression mode : Lossy
Stream size : 120 MiB (14%)
Title : Stereo
Language : English

Menu
ID : 3
Codec ID : text
Duration : 1h 42mn
Language : English
00:00:00.000 : Chapter 1
00:05:59.925 : Chapter 2
00:11:38.054 : Chapter 3
00:19:53.848 : Chapter 4
00:31:03.308 : Chapter 5
00:38:39.615 : Chapter 6
00:44:21.415 : Chapter 7
00:50:51.638 : Chapter 8
00:57:48.513 : Chapter 9
01:02:57.530 : Chapter 10
01:09:36.178 : Chapter 11
01:13:35.000 : Chapter 12
01:18:07.731 : Chapter 13
01:22:33.872 : Chapter 14
01:27:10.940 : Chapter 15
01:32:33.596 : Chapter 16
Bit rate mode : VBR