Funny Pics Compilation Part 3


Size : 100.78 MiB (105671366 Bytes)

Funny Pics Compilation Part 3

Screenshots

http://picrelated.com/image/95MF2 http://picrelated.com/image/95Nw0 http://picrelated.com/image/95XCY http://picrelated.com/image/95sSL http://picrelated.com/image/955Ep

Format
















: MPEG-4
Format profile












: Base Media / Version 2
Codec ID















: mp42 (mp41/isom)
File size















: 101 MiB
Duration















: 5 min 47 s
Overall bit rate











: 2 432 kb/s
Encoded date













: UTC 2016-10-03 21:03:00
Tagged date














: UTC 2016-10-03 21:03:00

Video
ID


















: 1
Format
















: AVC
Format/Info














: Advanced Video Codec
Format profile












: [email protected]/* */
Format settings, CABAC








: No
Format settings, ReFrames







: 2 frames
Format settings, GOP









: M=1, N=30
Codec ID















: avc1
Codec ID/Info













: Advanced Video Coding
Duration















: 5 min 47 s
Source duration












: 5 min 47 s
Bit rate















: 2 238 kb/s
Width

















: 1 920 pixels
Height
















: 1 080 pixels
Display aspect ratio









: 16:9
Frame rate mode












: Constant
Frame rate














: 29.970 (29970/1000) FPS
Color space














: YUV
Chroma subsampling










: 4:2:0
Bit depth















: 8 bits
Scan type















: Progressive
Bits/(Pixel*Frame)










: 0.036
Stream size














: 92.7 MiB (92%)
Source stream size










: 92.7 MiB (92%)
Encoded date













: UTC 2016-10-03 21:03:00
Tagged date














: UTC 2016-10-03 21:03:00
mdhd_Duration













: 347581

Audio
ID


















: 2
Format
















: AAC
Format/Info














: Advanced Audio Codec
Format profile












: LC
Codec ID















: 40
Duration















: 5 min 47 s
Bit rate mode













: Constant
Bit rate















: 192 kb/s
Channel(s)














: 2 channels
Channel positions











: Front: L R
Sampling rate













: 48.0 kHz
Frame rate














: 46.875 FPS (1024 spf)
Compression mode











: Lossy
Stream size














: 7.93 MiB (8%)
Encoded date













: UTC 2016-10-03 21:03:00
Tagged date














: UTC 2016-10-03 21:03:00
mdhd_Duration













: 347584