Funny Pics Compilation Part 6


Size : 169.91 MiB (178163935 Bytes)

Funny Pics Compilation Part 6

Screenshots


http://imgprix.com/video/funny-pics-compilation-part-6

Format
















: MPEG-4
Format profile












: Base Media / Version 2
Codec ID















: mp42 (mp41/isom)
File size















: 170 MiB
Duration















: 9 min 33 s
Overall bit rate











: 2 485 kb/s
Encoded date













: UTC 2016-10-07 22:59:04
Tagged date














: UTC 2016-10-07 22:59:04

Video
ID


















: 1
Format
















: AVC
Format/Info














: Advanced Video Codec
Format profile












: [email protected]/* */
Format settings, CABAC








: No
Format settings, ReFrames







: 2 frames
Format settings, GOP









: M=1, N=30
Codec ID















: avc1
Codec ID/Info













: Advanced Video Coding
Duration















: 9 min 33 s
Source duration












: 9 min 33 s
Bit rate















: 2 289 kb/s
Width

















: 1 920 pixels
Height
















: 1 080 pixels
Display aspect ratio









: 16:9
Frame rate mode












: Constant
Frame rate














: 29.970 (29970/1000) FPS
Color space














: YUV
Chroma subsampling










: 4:2:0
Bit depth















: 8 bits
Scan type















: Progressive
Bits/(Pixel*Frame)










: 0.037
Stream size














: 157 MiB (92%)
Source stream size










: 157 MiB (92%)
Encoded date













: UTC 2016-10-07 22:59:04
Tagged date














: UTC 2016-10-07 22:59:04
mdhd_Duration













: 573573

Audio
ID


















: 2
Format
















: AAC
Format/Info














: Advanced Audio Codec
Format profile












: LC
Codec ID















: 40
Duration















: 9 min 33 s
Bit rate mode













: Constant
Bit rate















: 192 kb/s
Channel(s)














: 2 channels
Channel positions











: Front: L R
Sampling rate













: 48.0 kHz
Frame rate














: 46.875 FPS (1024 spf)
Compression mode











: Lossy
Stream size














: 13.2 MiB (8%)
Encoded date













: UTC 2016-10-07 22:59:04
Tagged date














: UTC 2016-10-07 22:59:04
mdhd_Duration













: 573589