G.I. Joe: Retaliation (2013) 3D Dual Audio Español Latino


Size : 3.79 GiB (4074257843 Bytes)

SIPNOSIS

Los GI Joe no sólo tendrán que vérselas con su enemigo mortal, la organización criminal Cobra, sino que además se verán obligados a lidiar con las amenazas y traiciones dentro de su propio gobierno, que ponen en peligro su existencia.


DATOS TECNICOS

Format
















: Matroska
Format version












: Version 4 / Version 2
File size















: 3.79 GiB
Duration















: 1h 50mn
Overall bit rate mode









: Variable
Overall bit rate











: 4 926 Kbps
Movie name














: Audiolatino-Torrent


Video
ID


















: 1
Format
















: AVC
Codec ID















: V_MPEG4/ISO/AVC
Duration















: 1h 50mn
Bit rate mode













: Variable
Bit rate















: 4 096 Kbps
Maximum bit rate











: 62.5 Mbps
Width

















: 1 920 pixels
Height
















: 800 pixels
Display aspect ratio









: 2.40:1
Frame rate mode












: Constant
Frame rate














: 23.976 fps


Audio #1
ID


















: 2
Format
















: AC-3
Duration















: 1h 50mn
Bit rate mode













: Constant
Bit rate















: 448 Kbps
Channel(s)














: 6 channels
Channel positions











: Front: L C R, Side: L R, LFE
Sampling rate













: 48.0 KHz
Bit depth















: 16 bits
Compression mode











: Lossy
Stream size














: 353 MiB (9%)
Title

















: Español Latino
Language















: Latin
Default
















: Yes
Forced
















: No

Audio #2
ID


















: 3
Format
















: AC-3
Duration















: 1h 50mn
Bit rate mode













: Constant
Bit rate















: 384 Kbps
Channel(s)














: 6 channels
Channel positions











: Front: L C R, Side: L R, LFE
Sampling rate













: 48.0 KHz
Bit depth















: 16 bits
Compression mode











: Lossy
Stream size














: 303 MiB (8%)
Title

















: Ingles
Language















: English
Default
















: No
Forced
















: No

Text #1
ID


















: 4
Format
















: UTF-8
Codec ID















: S_TEXT/UTF8
Codec ID/Info













: UTF-8 Plain Text
Title

















: Forzados
Language















: Latin
Default
















: Yes
Forced
















: Yes

Text #2
ID


















: 5
Format
















: UTF-8
Codec ID















: S_TEXT/UTF8
Codec ID/Info













: UTF-8 Plain Text
Title

















: Español Latino
Language















: Latin
Default
















: No
Forced
















: No