G.I Joe: Retaliation *2013*[mini1080p.OU.AC3.BluRay.x264-LEON 34


Size : 4 GiB (4294105786 Bytes)

G.I Joe: Retaliation *2013*[mini-HD.1080p.Over-Under.Dualaudio.AC3.BluRay.x264-LEON 345] [Lektor i napisy PL]
==============================================================================

Film w wersji 3D Over-Under.
Do odtworzenia filmu WYMAGANY odpowiedni sprzęt (TV 3D).
==============================================

IMDB http://www.imdb.com/title/tt1583421/?ref_=sr_1

Kopia mini-HD 1080p = 3,99 GB


gatunek: Akcja
produkcja: USA
premiera: 12 kwietnia 2013 (Polska) 27 marca 2013 (świat)
reżyseria: Jon M. Chu
scenariusz: Rhett Reese,Paul Wernick

Świat stoi na krawędzi zagłady. Jeden człowiek naciskając jeden guzik może w sekundę zniszczyć wielkie miasto. To właśnie jego będą musieli pokonać żołnierze elitarnej jednostki G.I. Joe, dowodzonej przez Duke'a (Channing Tatum). Świetnie wyszkolona, sprawdzona w akcji ekipa ma dodatkowy atut: do oddziału dołącza legendarny twórca G.I. Joe, generał Joe Colton (Bruce Willis).

Kopie 3D SBS (OU) mini-HD, to kopie specjalistyczne o dużej rozdzielczości (1920 x 1080), które mimo niewielkiego ciężaru (w MB) zachowują wysoką jakość.

Szczególnie polecam tym, którzy chcą zaoszczędzić czas i przestrzeń na dysku.

Taką kopię można także bez problemu nagrać na zwykłą płytę DVD lub przenieś na zewnętrzną pamięć.

Ważne jest również to, że tą wersję mogą obejrzeć osoby, których sprzęt ma ograniczenia w postaci obsługi tylko formatu FAT, jak wiadomo taki format obsłuży filmy, które mają maksymalnie 4GB, więc w tym przypadku ta wersja jest też dla nich.

TĄ KOPIE WYKONAŁ LEON 345 SPECJALNIE DLA WAS

General
Unique ID : 201409170849150812618139559767739973922 (0x9785FECD5FBDF96CA8B1BF8105FBC122)
Complete name : F:FilmyFilmy 3DSzablonWstawkaGI_JOE_RETALIATION_2013_3D(Leon 345)GI_JOE_RETALIATION_2013_3D(Leon 345) (1).mkv
Format : Matroska
Format version : Version 2
File size : 4.00 GiB
Duration : 1h 50mn
Encoding type : 2 pass
Overall bit rate mode : Variable
Overall bit rate : 5 192 Kbps
Encoded date : UTC 2013-07-18 10:48:16
Writing application : mkvmerge v5.7.0 ('The Whirlwind') built on Jul 8 2012 20:08:51
Writing library : libebml v1.2.3 + libmatroska v1.3.0

Video
ID : 1
Format : AVC
Format/Info : Advanced Video Codec
Format profile : [email protected]/* */
Format settings, CABAC : Yes
Format settings, ReFrames : 2 frames
Codec ID : V_MPEG4/ISO/AVC
Duration : 1h 50mn
Bit rate mode : Variable
Bit rate : 4 423 Kbps
Width : 1 920 pixels
Height : 1 080 pixels
Display aspect ratio : 16:9 (2.39:1)
Frame rate mode : Constant
Frame rate : 23.976 fps
Color space : YUV
Chroma subsampling : 4:2:0
Bit depth : 8 bits
Scan type : Progressive
Bits/(Pixel*Frame) : 0.089
Stream size : 3.33 GiB (83%)
Title : Rip by Leon 345 encoding 2 pass
Writing library : x264 core 135 r2345 f0c1c53
Default : Yes
Forced : No

Audio #1
ID : 2
Format : AC-3
Format/Info : Audio Coding 3
Mode extension : CM (complete main)
Format settings, Endianness : Big
Codec ID : A_AC3
Duration : 1h 50mn
Bit rate mode : Constant
Bit rate : 384 Kbps
Channel(s) : 6 channels
Channel positions : Front: L C R, Side: L R, LFE
Sampling rate : 48.0 KHz
Bit depth : 16 bits
Compression mode : Lossy
Stream size : 303 MiB (7%)
Title : AC3 5.1 Lektor PL
Language : Polish
Default : Yes
Forced : Yes

Audio #2
ID : 3
Format : AC-3
Format/Info : Audio Coding 3
Mode extension : CM (complete main)
Format settings, Endianness : Big
Codec ID : A_AC3
Duration : 1h 50mn
Bit rate mode : Constant
Bit rate : 384 Kbps
Channel(s) : 6 channels
Channel positions : Front: L C R, Side: L R, LFE
Sampling rate : 48.0 KHz
Bit depth : 16 bits
Compression mode : Lossy
Stream size : 303 MiB (7%)
Title : AC3 5.1 Orginal
Language : English
Default : No
Forced : No

Text
ID : 4
Format : UTF-8
Codec ID : S_TEXT/UTF8
Codec ID/Info : UTF-8 Plain Text
Default : Yes
Forced : Yes

Source [thx]:
A/V-GI Joe Retaliation 2013 1080p 3D Blu-ray AVC TrueHD 7.1-HDWing
Lektor Pl - DVD5