Global.Baba.2016.1080p.WEB-DL.H264.AAC2.0-DDR


Size : 2.45 GiB (2634583988 Bytes)

~ Global.Baba ~

** 1080p / WEB-DL / H264 / AAC2.0 **

General
Complete name : Global.Baba.2016.1080p.WEB-DL.H264.AAC2.0-DDR.mp4
Format : MPEG-4
Format profile : Base Media
Codec ID : isom (isom/iso2/avc1/mp41)
File size : 2.44 GiB
Duration : 1h 51mn
Overall bit rate mode : Variable
Overall bit rate : 3 136 Kbps
Writing application : Lavf56.40.101

Video
ID : 1
Format : AVC
Format/Info : Advanced Video Codec
Format profile : [email protected]/* */
Format settings, CABAC : Yes
Format settings, ReFrames : 4 frames
Codec ID : avc1
Codec ID/Info : Advanced Video Coding
Duration : 1h 51mn
Bit rate : 2 970 Kbps
Width : 1 920 pixels
Height : 1 080 pixels
Display aspect ratio : 16:9
Frame rate mode : Constant
Frame rate : 24.000 fps
Color space : YUV
Chroma subsampling : 4:2:0
Bit depth : 8 bits
Scan type : Progressive
Bits/(Pixel*Frame) : 0.060
Stream size : 2.31 GiB (95%)

Audio
ID : 2
Format : AAC
Format/Info : Advanced Audio Codec
Format profile : LC
Codec ID : 40
Duration : 1h 51mn
Bit rate mode : Variable
Bit rate : 160 Kbps
Maximum bit rate : 163 Kbps
Channel(s) : 2 channels
Channel positions : Front: L R
Sampling rate : 44.1 KHz
Frame rate : 43.066 fps (1024 spf)
Compression mode : Lossy
Stream size : 128 MiB (5%)
Default : Yes


https://extraimage.net/image/wvrY https://extraimage.net/image/wvrC https://extraimage.net/image/wvrB https://extraimage.net/image/wvr4 https://extraimage.net/image/wvre https://extraimage.net/image/wvrG https://extraimage.net/image/wvrr https://extraimage.net/image/wvrp