GN’R:AppetiteforDemocracy3D_2014[1080p.HOU.DTS-HD.BR.x264-LEON 3


Size : 19.1 GiB (20509253888 Bytes)

Film w wersji 3D Over-Under.
Do odtworzenia filmu WYMAGANY odpowiedni sprzęt (TV 3D).
=============================================


Data premiery na BD: 1 lipca 2014

Wykonawca: Guns N' Roses
Kategoria: koncerty

Czas trwania: 2:43:36
http://www.imdb.com/title/tt2931194/

Appetite For Democracy 3D: Live at the Hard Rock Casino - Las Vegas trafiło do wybranych kin w USA 14 czerwca, 1 lipca ukazało się na DVD/Blu-ray.
Produkcja dokumentuje serię występów, jaką kapela dała w Hard Rock Hotel & Casino w Las Vegas przed dwoma laty.Dokładnie jest to zapis show z 21 listopada 2012 roku przygotowany z okazji 25. rocznicy wydania albumu "Appetite for Destruction".
To pierwsze od 22 lat koncertowe wydawnictwo Guns N' Roses.

Lista utworów:

01. Chinese Democracy
02. Welcome To The Jungle

03. It's So Easy

04. Mr. Brownstone

05. Estranged
06. Rocket Queen
07. Live and Let Die
08. This I Love
09. Better
10. Motivation (Tommy Stinson song)

11. Catcher In The Rye

12. Street Of Dreams
13. You Could Be Mine
14. Sweet Child O' Mine
15. Another Brick In The Wall Part 2 (PINK FLOYD cover)

16. November Rain
17. Objectify (Bumblefoot song)

18. Don't Cry
19. Civil War

20. The Seeker (THE WHO cover)

21. Knockin' On Heaven's Door (BOB DYLAN cover)

22. Nightrain

23. Don't Let It Bring You Down (NEIL YOUNG cover)

24. Used To Love Her

25. Patience

26. Paradise City

General

Format : Matroska
Format version : Version 2
File size : 19.1 GiB
Duration : 2h 43mn
Overall bit rate mode : Variable
Overall bit rate : 16.7 Mbps
Movie name : Appetite_for_Democracy.Title0.Bluray3DRip by Leon 345
Encoded date : UTC 2014-07-11 10:40:03
Writing application : mkvmerge v5.7.0 ('The Whirlwind') built on Jul 8 2012 20:08:51
Writing library : libebml v1.2.3 + libmatroska v1.3.0
Attachment : Yes


Video
ID : 1
Format : AVC
Format/Info : Advanced Video Codec
Format profile : [email protected]/* */
Format settings, CABAC : Yes
Format settings, ReFrames : 2 frames
Codec ID : V_MPEG4/ISO/AVC
Duration : 2h 43mn
Bit rate : 10.6 Mbps
Width : 1 920 pixels
Height : 1 080 pixels
Display aspect ratio : 16:9 (1.78:1)
Frame rate mode : Constant
Frame rate : 23.976 fps
Color space : YUV
Chroma subsampling : 4:2:0
Bit depth : 8 bits
Scan type : Progressive
Bits/(Pixel*Frame) : 0.214
Stream size : 12.1 GiB (98%)
Title : Rip by Leon 345
Writing library : x264 core
Default : Yes
Forced : No


Audio #1
ID : 2
Format : AC-3
Format/Info : Audio Coding 3
Mode extension : CM (complete main)
Format settings, Endianness : Big
Codec ID : A_AC3
Duration : 2h 43mn
Bit rate mode : Constant
Bit rate : 640 Kbps
Channel(s) : 6 channels
Channel positions : Front: L C R, Side: L R, LFE
Sampling rate : 48.0 KHz
Bit depth : 16 bits
Compression mode : Lossy
Stream size : 749 MiB (4%)
Title : AC3 5.1
Language : English
Default : No
Forced : No

Audio #2
ID : 3
Format : DTS
Format/Info : Digital Theater Systems
Format profile : MA / Core
Mode : 16
Format settings, Endianness : Big
Codec ID : A_DTS
Duration : 2h 43mn
Bit rate mode : Variable
Bit rate : 5245 / 1 509 Kbps
Channel(s) : 6 channels
Channel positions : Front: L C R, Side: L R, LFE
Sampling rate : 48.0 KHz
Bit depth : 24 bits
Compression mode : Lossless / Lossy
Title : DTS-HD MA 5.1 Orginal
Language : English
Default : No
Forced : No

Source :
A/V-BD3D-Remux(Leon 345)