Godzilla 2014 3D 1080p BluRay Half-SBS 6CH x264 Pimp4003


Size : 2.85 GiB (3063286000 Bytes)

 http://i.imgur.com/fW5GLTr.jpg
http://i.imgur.com/9L2gX9R.jpg

SOURCE: SPRINTER

Godzilla 2014 3D 1080p BluRay Half-SBS 6CH x264 Pimp4003

ENJOY

PIMP4003

Video
ID


















: 1
Format
















: AVC
Format/Info














: Advanced Video Codec
Format profile












: [email protected]/* */
Format settings, CABAC








: Yes
Format settings, ReFrames







: 4 frames
Codec ID















: avc1
Codec ID/Info













: Advanced Video Coding
Duration















: 2h 3mn
Bit rate















: 3 058 Kbps
Width

















: 1 920 pixels
Height
















: 800 pixels
Display aspect ratio









: 2.40:1
Frame rate mode












: Variable
Frame rate














: 23.976 fps
Minimum frame rate










: 23.810 fps
Maximum frame rate










: 24.390 fps
Color space














: YUV
Chroma subsampling










: 4:2:0
Bit depth















: 8 bits
Scan type















: Progressive
Bits/(Pixel*Frame)










: 0.083
Stream size














: 2.63 GiB (92%)
Writing library












: x264 core 130 r2273 b3065e6
Encoding settings











: cabac=1 / ref=1 / deblock=1:0:0 / analyse=0x1:0x111 / me=hex / subme=2 / psy=1 / psy_rd=1.00:0.00 / mixed_ref=0 / me_range=16 / chroma_me=1 / trellis=0 / 8x8dct=0 / cqm=0 / deadzone=21,11 / fast_pskip=1 / chroma_qp_offset=0 / threads=12 / lookahead_threads=4 / sliced_threads=0 / nr=0 / decimate=1 / interlaced=0 / bluray_compat=0 / constrained_intra=0 / bframes=3 / b_pyramid=2 / b_adapt=1 / b_bias=0 / direct=1 / weightb=1 / open_gop=0 / weightp=1 / keyint=240 / keyint_min=24 / scenecut=40 / intra_refresh=0 / rc_lookahead=10 / rc=crf / mbtree=1 / crf=20.0 / qcomp=0.60 / qpmin=0 / qpmax=69 / qpstep=4 / vbv_maxrate=20000 / vbv_bufsize=25000 / crf_max=0.0 / nal_hrd=none / ip_ratio=1.40 / aq=1:1.00
Encoded date













: UTC 2014-08-24 09:59:50
Tagged date














: UTC 2014-08-24 10:35:02
Color primaries












: BT.709
Transfer characteristics







: BT.709
Matrix coefficients










: BT.709

Audio
ID


















: 2
Format
















: AAC
Format/Info














: Advanced Audio Codec
Format profile












: LC
Codec ID















: 40
Duration















: 2h 3mn
Bit rate mode













: Variable
Bit rate















: 256 Kbps
Maximum bit rate











: 394 Kbps
Channel(s)














: 6 channels
Channel positions











: Front: L C R, Side: L R, LFE
Sampling rate













: 48.0 KHz
Compression mode











: Lossy
Stream size














: 225 MiB (8%)
Language















: English
Encoded date













: UTC 2014-08-24 09:59:50
Tagged date














: UTC 2014-08-24 10:35:01

Menu
ID


















: 3
Codec ID















: text
Duration















: 2h 3mn
Encoded date













: UTC 2014-08-24 09:59:50
Tagged date














: UTC 2014-08-24 10:35:02
Bit rate mode













: VBR