Godzilla (2014) Dual Audio BDRip 1080p 3D Half-OU


Size : 6.32 GiB (6784098668 Bytes)

 ______
_______
______

___
_


___
--------|
|


| |
_
||

_ |
|
| | |

|
||
|----|


|
_

||
|_|
||
| ||
|
|_| |

|
||
|___
| | |
||


||
|_||_ |


_|

|
||

_
|
| |_|
||


||

__
||

|_
___|
||
| | |
|


||
_
||
|
| ||

_
||


||
|_| |
|______| |__| |__||___|
|_||___| |_||_______||_______|

Join ThePirateBay Forum:























https://forum.suprbay.org/member.php?action=register&referrer=908

http://i.imgur.com/YKnvGtU.jpg
http://i.imgur.com/F9Fp4xI.jpg
http://i.imgur.com/NM5kpra.jpg

Quality: BDRip (by Ash61)
Container: MKV
Format 3D: Half OverUnder / Vertical anamorphic stereo pair
The order of angles: left angle first
Video codec: x264
Audio codec: AC3
http://www.imdb.com/title/tt0831387/

Video: AVC / 23.976 fps / 1920x1080 p / ~ 5.9 Mbps

Audio: # 1 - Russian / AC3 / 48 KHz / 5.1 ch / 384 Kbps ( Dubbing - iTunes )





# 2 - Ukrainian / AC3 / 48 KHz / 2 ch / 224 Kbps ( Dubbing - iTunes )





# 3 - English / AC3 / 48 KHz / 5.1 ch / 640 Kbps ( Original - BD 3D )

Subtitles: (SRT) Sewn (softsub): # 1 - Russian Forced (enabled by (I)






# 6 - English SDH (I)






# 7 - English SDH-Colored (I) External (UTF-8):






# 1 - Russian Forced (enabled by default)






# 2 - Ukrainian Forced

General
Unique ID: 229295673207545657022162480480612684338 (0xAC80BD8546B878FCADDC892F36129232)
Complete name: E: Godzilla (2014) 3D-halfOU (Ash61) iTunesGodzilla (2014) 3D-halfOU (Ash61) iTunes.mkv
Format: Matroska
Format version: Version 2
File size: 6.32 GiB
Duration: 2h 3mn
Overall bit rate: 7347 Kbps
Movie name: Godzilla / Godzilla (2014) 3D
Encoded date: UTC 2014-08-27 14:45:57
Writing application: mkvmerge v5.8.0 ('No Sleep / Pillow') built on Sep February 2012 15:37:04
Writing library: libebml v1.2.3 + libmatroska v1.3.0

Video
ID: 1
Format: AVC
Format / Info: Advanced Video Codec
Format profile: [email protected]/* */
Format settings, CABAC: Yes
Format settings, ReFrames: 4 frames
Codec ID: V_MPEG4 / ISO / AVC
Duration: 2h 3mn
Bit rate: 5953 Kbps
Width: 1920 pixels
Height: 1080 pixels
Display aspect ratio: 16: 9
Frame rate mode: Constant
Frame rate: 23.976 fps
Color space: YUV
Chroma subsampling: 4: 2: 0
Bit depth: 8 bits
Scan type: Progressive
Bits / (Pixel * Frame): 0.120
Stream size: 5.12 GiB (81%)
Title: BDRip by Ash61
Writing library: x264 core 138 r2358 9e941d1
Encoding settings: cabac = 1 / ref = 4 / deblock = 1: -3: -3 / analyse = 0x3: 0x113 / me = umh / subme = 10 / psy = 1 / psy_rd = 1.00: 0.15 / mixed_ref = 1 / me_range = 32 / chroma_me = 1 / trellis = 2 / 8x8dct = 1 / cqm = 0 / deadzone = 21,11 / fast_pskip = 1 / chroma_qp_offset = -3 / threads = 12 / lookahead_threads = 3 / sliced_threads = 0 / nr = 0 / decimate = 1 / interlaced = 0 / bluray_compat = 0 / constrained_intra = 0 / bframes = 10 / b_pyramid = 2 / b_adapt = 2 / b_bias = 0 / direct = 3 / weightb = 1 / open_gop = 0 / weightp = 2 / keyint = 250 / keyint_min = 23 / ​​scenecut = 40 / intra_refresh = 0 / rc_lookahead = 60 / rc = crf / mbtree = 1 / crf = 17.0 / qcomp = 0.70 / qpmin = 0 / qpmax = 69 / qpstep = 4 / vbv_maxrate = 40000 / vbv_bufsize = 30000 / crf_max = 0.0 / nal_hrd = none / frame-packing = 4 / ip_ratio = 1.40 / aq = 1: 0.70
Language: English
Default: Yes
Forced: No

Audio # 1
ID: 2
Format: AC-3
Format / Info: Audio Coding 3
Mode extension: CM (complete main)
Format settings, Endianness: Big
Codec ID: A_AC3
Duration: 2h 3mn
Bit rate mode: Constant
Bit rate: 384 Kbps
Channel (s): 6 channels
Channel positions: Front: L C R, Side: L R, LFE
Sampling rate: 48.0 KHz
Bit depth: 16 bits
Compression mode: Lossy
Stream size: 338 MiB (5%)
Title: Dubbing - iTunes
Language: Russian
Default: Yes
Forced: No

Audio # 2
ID: 3
Format: AC-3
Format / Info: Audio Coding 3
Mode extension: CM (complete main)
Format settings, Endianness: Big
Codec ID: A_AC3
Duration: 2h 3mn
Bit rate mode: Constant
Bit rate: 224 Kbps
Channel (s): 2 channels
Channel positions: Front: L R
Sampling rate: 48.0 KHz
Bit depth: 16 bits
Compression mode: Lossy
Stream size: 197 MiB (3%)
Title: Dubbing - iTunes
Language: Ukrainian
Default: No
Forced: No

Audio # 3
ID: 4
Format: AC-3
Format / Info: Audio Coding 3
Mode extension: CM (complete main)
Format settings, Endianness: Big
Codec ID: A_AC3
Duration: 2h 3mn
Bit rate mode: Constant
Bit rate: 640 Kbps
Channel (s): 6 channels
Channel positions: Front: L C R, Side: L R, LFE
Sampling rate: 48.0 KHz
Bit depth: 16 bits
Compression mode: Lossy
Stream size: 564 MiB (9%)
Title: Original - BD 3D
Language: English
Default: No
Forced: No

Text # 1
ID: 5
Format: UTF-8
Codec ID: S_TEXT / UTF8
Codec ID / Info: UTF-8 Plain Text
Title: Forced - iTunes
Language: Russian
Default: Yes
Forced: No

Text # 2
ID: 6
Format: UTF-8
Codec ID: S_TEXT / UTF8
Codec ID / Info: UTF-8 Plain Text
Title: Full - iTunes
Language: Russian
Default: No
Forced: No

Text # 3
ID: 7
Format: UTF-8
Codec ID: S_TEXT / UTF8
Codec ID / Info: UTF-8 Plain Text
Title: Forced - iTunes
Language: Ukrainian
Default: No
Forced: No

Text # 4
ID: 8
Format: UTF-8
Codec ID: S_TEXT / UTF8
Codec ID / Info: UTF-8 Plain Text
Title: Full - iTunes
Language: Ukrainian
Default: No
Forced: No

Text # 5
ID: 9
Format: UTF-8
Codec ID: S_TEXT / UTF8
Codec ID / Info: UTF-8 Plain Text
Title: Full (i)
Language: English
Default: No
Forced: No

Text # 6
ID: 10
Format: UTF-8
Codec ID: S_TEXT / UTF8
Codec ID / Info: UTF-8 Plain Text
Title: SDH (i)
Language: English
Default: No
Forced: No

Text # 7
ID: 11
Format: UTF-8
Codec ID: S_TEXT / UTF8
Codec ID / Info: UTF-8 Plain Text
Title: SDH-Colored (i)
Language: English
Default: No
Forced: No

Menu
00: 00: 00.000: 1
00: 09: 22,562: 2
00: 19: 03,225: 3
00: 30: 25,532: 4
00: 39: 10,098: 5
00: 49: 43,439: 6
00: 59: 27,189: 7
01: 09: 50,186: 8
01: 19: 11.246: 9
01: 29: 57,267: 10
01: 40: 14.759: 11
01: 52: 14,728: 12
01: 56: 10.088: 13