Good Behavior S01E04 Uncensored 720p WEB-DL HEVC 2CH x265


Size : 361.2 MiB (378746690 Bytes)

Source:Good Behavior S01E04 Your Mama Had a Hard Night Uncensored 1080p WEB-DL DD5.1 H264-RTN (1.86 GB)


Complete name:
Good.Behavior.S01E04.Your.Mama.Had.a.Hard.Night.Uncensored.720p.WEB-DL.HEVC.2CH.x265.mkv
Format
















: Matroska
Format version












: Version 4 / Version 2
File size















: 361 MiB
Duration















: 47mn 53s
Overall bit rate











: 1 054 Kbps
Writing application










: Lavf57.25.100

Video

ID


















: 1
Format
















: V_MPEGH/ISO/HEVC
Duration















: 47mn 53s
Bit rate















: 841 Kbps
Width

















: 1 274 pixels
Height
















: 720 pixels
Display aspect ratio









: 16:9
Frame rate














: 25.000 fps
Bits/(Pixel*Frame)










: 0.037
Stream size














: 288 MiB (80%)
Default
















: Yes
Forced
















: No
DURATION















: 00:47:53.451000000

Audio

ID


















: 2
Format
















: AC-3
Format/Info














: Audio Coding 3
Mode extension












: CM (complete main)
Format settings, Endianness






: Big
Codec ID















: A_AC3
Duration















: 47mn 53s
Bit rate mode













: Constant
Bit rate















: 192 Kbps
Channel(s)














: 2 channels
Channel positions











: Front: L R
Sampling rate













: 48.0 KHz
Bit depth















: 16 bits
Compression mode











: Lossy
Stream size














: 65.8 MiB (18%)
Writing library












: Lavc57.24.102 ac3
Default
















: Yes
Forced
















: No
DURATION















: 00:47:53.503000000

Text

ID


















: 3
Codec ID















: S_TEXT/ASS
Language















: English