Gravity [3D] (2013) [hardcode 3d greek subs]


Size : 1.75 GiB (1879932473 Bytes)

General

Complete name













: Gravity.2013.3D.1080p.Bluray.HSBS.x264-hard.greek.subs.mkv
Format
















: Matroska
Format version












: Version 4 / Version 2
File size















: 1.75 GiB
Duration















: 1h 30mn
Overall bit rate mode









: Variable
Overall bit rate











: 2 756 Kbps
Encoded date













: UTC 2014-04-17 15:00:41
Writing application










: mkvmerge v6.8.0 ('Theme for Great Cities') 64bit built on Mar
2 2014 21:34:26
Writing library












: libebml v1.3.0 + libmatroska v1.4.1

Video
ID


















: 1
Format
















: AVC
Format/Info














: Advanced Video Codec
Format profile












: [email protected]/* */
Format settings, CABAC








: Yes
Format settings, ReFrames







: 3 frames
Codec ID















: V_MPEG4/ISO/AVC
Duration















: 1h 30mn
Bit rate mode













: Variable
Bit rate















: 2 509 Kbps
Nominal bit rate











: 3 000 Kbps
Maximum bit rate











: 3 000 Kbps
Width

















: 1 920 pixels
Height
















: 1 080 pixels
Display aspect ratio









: 16:9
Frame rate mode












: Constant
Frame rate














: 23.976 fps
Color space














: YUV
Chroma subsampling










: 4:2:0
Bit depth















: 8 bits
Scan type















: Progressive
Bits/(Pixel*Frame)










: 0.050
Stream size














: 1.59 GiB (91%)
Writing library












: x264 core 129 r2245 bc13772
Encoding settings











: cabac=1 / ref=3 / deblock=1:0:0 / analyse=0x3:0x113 / me=hex / subme=7 / psy=1 / psy_rd=1.00:0.00 / mixed_ref=1 / me_range=16 / chroma_me=1 / trellis=1 / 8x8dct=1 / cqm=0 / deadzone=21,11 / fast_pskip=1 / chroma_qp_offset=-2 / threads=9 / lookahead_threads=1 / sliced_threads=0 / nr=0 / decimate=1 / interlaced=0 / bluray_compat=0 / constrained_intra=0 / bframes=3 / b_pyramid=0 / b_adapt=1 / b_bias=0 / direct=1 / weightb=1 / open_gop=0 / weightp=2 / keyint=240 / keyint_min=24 / scenecut=40 / intra_refresh=0 / rc_lookahead=40 / rc=cbr / mbtree=1 / bitrate=3000 / ratetol=1.0 / qcomp=0.60 / qpmin=0 / qpmax=69 / qpstep=4 / vbv_maxrate=3000 / vbv_bufsize=3000 / nal_hrd=vbr / ip_ratio=1.40 / aq=1:1.00
Default
















: Yes
Forced
















: No

Audio
ID


















: 2
Format
















: AC-3
Format/Info














: Audio Coding 3
Mode extension












: CM (complete main)
Format settings, Endianness






: Big
Codec ID















: A_AC3
Duration















: 1h 30mn
Bit rate mode













: Constant
Bit rate















: 192 Kbps
Channel(s)














: 6 channels
Channel positions











: Front: L C R, Side: L R, LFE
Sampling rate













: 48.0 KHz
Bit depth















: 16 bits
Compression mode











: Lossy
Stream size














: 125 MiB (7%)
Default
















: Yes
Forced
















: No