Guardians.of.The.Galaxy.3D.2014.1080p.HOU.BRRip.x264.Hun.Eng

Magnet Download Torrent Download

Size : 6.66 GiB (7150865431 Bytes)

Guardians.of.The.Galaxy.3D.2014.1080p.HOU.BRRip.x264.Hun.Eng
http://www.imdb.com/title/tt2015381/

General
Unique ID















: 242320086927371475254204431136976005101 (0xB64D26B207360CFAB02A6CAB4793E7ED)
Complete name













: F:Guardians.of.The.Galaxy.3D.2014.1080p.HOU.BRRip.x264.Hun.EngGuardians Of The Galaxy 3D (2014) HOU 1080p.mkv
Format
















: Matroska
Format version












: Version 4 / Version 2
File size















: 6.66 GiB
Duration















: 2h 0mn
Overall bit rate











: 7 889 Kbps
Encoded date













: UTC 2014-11-29 07:21:36
Writing application










: mkvmerge v7.2.0 ('On Every Street') 64bit built on Sep 13 2014 15:52:10
Writing library












: libebml v1.3.0 + libmatroska v1.4.1
DURATION















: 02:00:51.040000000
NUMBER_OF_FRAMES











: 226595
NUMBER_OF_BYTES












: 348049920
_STATISTICS_WRITING_APP








: mkvmerge v7.2.0 ('On Every Street') 64bit built on Sep 13 2014 15:52:10
_STATISTICS_WRITING_DATE_UTC





: 2014-11-29 07:21:36
_STATISTICS_TAGS











: BPS DURATION NUMBER_OF_FRAMES NUMBER_OF_BYTES

Video
ID


















: 1
Format
















: AVC
Format/Info














: Advanced Video Codec
Format profile












: [email protected]/* */
Format settings, CABAC








: Yes
Format settings, ReFrames







: 4 frames
Codec ID















: V_MPEG4/ISO/AVC
Duration















: 2h 0mn
Bit rate















: 6 750 Kbps
Width

















: 1 920 pixels
Height
















: 1 080 pixels
Display aspect ratio









: 16:9
Frame rate mode












: Constant
Frame rate














: 23.976 fps
Color space














: YUV
Chroma subsampling










: 4:2:0
Bit depth















: 8 bits
Scan type















: Progressive
Bits/(Pixel*Frame)










: 0.136
Stream size














: 5.57 GiB (84%)
Title

















: Guardians Of The Galaxy 3D (2014) HOU 1080p
Writing library












: x264 core 142 r2431 ac76440
Encoding settings











: cabac=1 / ref=4 / deblock=1:-1:-1 / analyse=0x3:0x113 / me=umh / subme=6 / psy=1 / psy_rd=1.00:0.00 / mixed_ref=1 / me_range=30 / chroma_me=1 / trellis=1 / 8x8dct=1 / cqm=2 / deadzone=21,11 / fast_pskip=0 / chroma_qp_offset=-2 / threads=12 / lookahead_threads=3 / sliced_threads=0 / nr=0 / decimate=0 / interlaced=0 / bluray_compat=0 / constrained_intra=0 / bframes=5 / b_pyramid=2 / b_adapt=2 / b_bias=0 / direct=3 / weightb=1 / open_gop=0 / weightp=2 / keyint=240 / keyint_min=23 / scenecut=40 / intra_refresh=0 / rc_lookahead=50 / rc=2pass / mbtree=1 / bitrate=6750 / ratetol=1.0 / qcomp=0.60 / qpmin=1 / qpmax=69 / qpstep=4 / cplxblur=20.0 / qblur=0.5 / vbv_maxrate=62500 / vbv_bufsize=78125 / nal_hrd=none / filler=0 / ip_ratio=1.40 / aq=1:1.00
Default
















: Yes
Forced
















: No
DURATION















: 02:00:51.203000000
NUMBER_OF_FRAMES











: 173855
NUMBER_OF_BYTES












: 6116550265
_STATISTICS_WRITING_APP








: mkvmerge v7.2.0 ('On Every Street') 64bit built on Sep 13 2014 15:52:10
_STATISTICS_WRITING_DATE_UTC





: 2014-11-29 07:21:36
_STATISTICS_TAGS











: BPS DURATION NUMBER_OF_FRAMES NUMBER_OF_BYTES

Audio #1
ID


















: 2
Format
















: AC-3
Format/Info














: Audio Coding 3
Mode extension












: CM (complete main)
Format settings, Endianness






: Big
Codec ID















: A_AC3
Duration















: 2h 0mn
Bit rate mode













: Constant
Bit rate















: 384 Kbps
Channel(s)














: 6 channels
Channel positions











: Front: L C R, Side: L R, LFE
Sampling rate













: 48.0 KHz
Bit depth















: 16 bits
Compression mode











: Lossy
Stream size














: 332 MiB (5%)
Title

















: 5.1
Language















: Hungarian
Default
















: Yes
Forced
















: No

Audio #2
ID


















: 3
Format
















: DTS
Format/Info














: Digital Theater Systems
Mode

















: 16
Format settings, Endianness






: Big
Codec ID















: A_DTS
Duration















: 2h 0mn
Bit rate mode













: Constant
Bit rate















: 755 Kbps
Channel(s)














: 6 channels
Channel positions











: Front: L C R, Side: L R, LFE
Sampling rate













: 48.0 KHz
Bit depth















: 24 bits
Compression mode











: Lossy
Stream size














: 652 MiB (10%)
Title

















: DTS 5.1
Language















: English
Default
















: No
Forced
















: No
http://www.port.hu/a_galaxis_orzoi_guardians_of_the_galaxy/pls/fi/films.film_page?i_topic_id=2&i_film_id=144792&i_city_id=-1&i_county_id=-1