Halsey – Colors (2016 Pop)


Size : 79.52 MiB (83381521 Bytes)

 http://gifyu.com/images/colors.png



















MEDIA INFO
Halsey - Colors
Format
















: MPEG-4
Format profile












: Base Media
Codec ID















: isom (isom/iso2/avc1/mp41)
File size















: 79.5 MiB
Duration















: 4mn 14s
Overall bit rate











: 2 618 Kbps
MusicVid name













: Colors
Album

















: Badlands
Performer















: Halsey
Publisher















: MeRaDil
Genre

















: Electropop
ContentType














: Music Video
Recorded date













: 2016
Writing application










: Lavf56.32.100/MeRaDil
Release date













: USA - february 25 - 2016
http://gifyu.com/images/halsey.png

Video
ID


















: 1
Format
















: AVC
Format/Info














: Advanced Video Codec
Format profile












: [email protected]/* */
Format settings, CABAC








: Yes
Format settings, ReFrames







: 2 frames
Codec ID















: avc1
Codec ID/Info













: Advanced Video Coding
Duration















: 4mn 14s
Bit rate















: 2 337 Kbps
Width

















: 1 920 pixels
Height
















: 1 080 pixels
Display aspect ratio









: 16:9
Frame rate mode












: Variable
Frame rate














: 23.976 (24000/1001) fps
Minimum frame rate










: 23.974 fps
Maximum frame rate










: 23.981 fps
Color space














: YUV
Chroma subsampling










: 4:2:0
Bit depth















: 8 bits
Scan type















: Progressive
Bits/(Pixel*Frame)










: 0.047
Stream size














: 71.0 MiB (89%)
Color range














: Limited

Audio
ID


















: 2
Format
















: AAC
Format/Info














: Advanced Audio Codec
Format profile












: LC
Codec ID















: 40
Duration















: 4mn 14s
Bit rate mode













: Constant
Bit rate















: 256 Kbps
Channel(s)














: 2 channels
Channel positions











: Front: L R
Sampling rate













: 44.1 KHz
Frame rate














: 43.066 fps (1024 spf)
Compression mode











: Lossy
Stream size














: 7.78 MiB (10%)
Default
















: Yes
Alternate group












: 1