Happiness Is a Warm Blanket, Charlie Brown (2011) BDRip ukr sub


Size : 347.43 MiB (364305316 Bytes)


Directors: Andrew Beall, Frank Molieri
Writers: Charles M. Schulz (characters), Craig Schulz
Stars: Austin Lux, Amanda Pace, Trenton Rogers

Linus is pushed to his limits when he learns Grandma is coming to visit and plans on ridding him of his childish security blanket.

Format
















: MPEG-4
Format profile












: Base Media
Codec ID















: isom
File size















: 347 MiB
Duration















: 45mn 41s
Overall bit rate mode









: Variable
Overall bit rate











: 1 063 Kbps
Movie name














: Happiness Is a Warm Blanket, Charlie Brown*2011 /antusyrzhuk
Genre

















: Comedy
Recorded date













: 2011
Encoded date













: UTC 2014-10-17 09:42:46
Tagged date














: UTC 2014-10-17 09:42:46
Comment
















: http://cinemasterpiece .wordpress .com/

Video
ID


















: 1
Format
















: AVC
Format/Info














: Advanced Video Codec
Format profile












: [email protected]/* */
Format settings, CABAC








: Yes
Format settings, ReFrames







: 10 frames
Codec ID















: avc1
Codec ID/Info













: Advanced Video Coding
Duration















: 45mn 40s
Bit rate















: 950 Kbps
Maximum bit rate











: 7 139 Kbps
Width

















: 854 pixels
Height
















: 480 pixels
Display aspect ratio









: 16:9
Frame rate mode












: Constant
Frame rate














: 23.976 fps
Color space














: YUV
Chroma subsampling










: 4:2:0
Bit depth















: 8 bits
Scan type















: Progressive
Bits/(Pixel*Frame)










: 0.097
Stream size














: 310 MiB (89%)
Writing library












: x264 core 142 r2431 ac76440

Audio
ID


















: 2
Format
















: AAC
Format/Info














: Advanced Audio Codec
Format profile












: LC
Codec ID















: 40
Duration















: 45mn 41s
Bit rate mode













: Variable
Bit rate















: 109 Kbps
Maximum bit rate











: 152 Kbps
Channel(s)














: 2 channels
Channel positions











: Front: L R
Sampling rate













: 48.0 KHz
Compression mode











: Lossy
Stream size














: 35.7 MiB (10%)
Language















: English

+ Ukrainian subtitles

Screenshots: http://postimg.org/image/kxx35vrqd/ http://postimg.org/image/c1hpo7bqd/ http://postimg.org/image/bfxc5u61x/ http://postimg.org/image/i53vlurdx/

English subtitles: http://subscene.com/subtitles/happiness-is-a-warm-blanket-charlie-brown/english/996503
English subtitles SDH: http://subscene.com/subtitles/happiness-is-a-warm-blanket-charlie-brown/english/996505
French subtitles: http://subscene.com/subtitles/happiness-is-a-warm-blanket-charlie-brown/french/996506
German subtitles: http://subscene.com/subtitles/happiness-is-a-warm-blanket-charlie-brown/german/996515
Spanish subtitles: http://subscene.com/subtitles/happiness-is-a-warm-blanket-charlie-brown/spanish/996521