Hercules (2014) Director’s cut 3D BlurayRip, Dual Audio.


Size : 11.51 GiB (12357287809 Bytes)


Hercules (2014) Director's cut 3D BlurayRip, Dual Audio: Espanol Latino + Ingles + Sub.


FICHA TECNICA

Título original:
Hercules
Año:
2014
Duración:
98 min
País:
USA
Director:
Brett Ratner
Escritor:
Ryan Condal (screenplay), Evan Spiliotopoulos (screenplay), Steve Moore (Radical comic "Hercules")
Reparto:
Dwayne Johnson, Ian McShane, John Hurt, Rufus Sewell
Productora:
Radical Studios,Paramount Pictures,Metro-Goldwyn-Mayer (MGM),Flynn Picture Company
Género:
Acción,Aventura


SINOPSIS

La película, que está basada en la novela gráfica de Steve Moore, narra la historia de Hércules, hijo de Zeus, que no es ni dios ni mortal y esta situación le ha llevado a estar sufriendo siempre. Después de doce dificultosas labores y la pérdida de los miembros de la familia, toma la determinación de no obedecer más a los dioses y encontrar refugio en brutales acciones. Mientras se llevan a cabo sus aventuras, se le han ido uniendo algunas almas parecidas a él, que comparten su amor por la batalla y la tenaz existencia de la muerte en sus vidas. Las almas no realizan preguntas, solamente les preocupa conocer cuanto dinero les van a pagar por combatir. Éstas han sido contratadas por el rey de Tracia para que regresen a su ejército: una armada insuperable. ¿Veremos a unos guerreros renovados que se den cuenta del error que han cometido o en cambio, volverán de la armada un grupo de despiadados asesinos?


INFO MEDIA

Format
















: Matroska
Format version












: Version 4 / Version 2
File size















: 11.5 GiB
Duration















: 1h 38mn
Overall bit rate











: 16.8 Mbps

Video
ID


















: 1
Format
















: AVC
Format/Info














: Advanced Video Codec
Format profile












: [email protected]/* */
Format settings, CABAC








: Yes
Format settings, ReFrames







: 2 frames
Codec ID















: V_MPEG4/ISO/AVC
Duration















: 1h 38mn
Bit rate















: 15.5 Mbps
Width

















: 1 920 pixels
Height
















: 1 080 pixels
Display aspect ratio









: 16:9
Frame rate mode












: Constant
Frame rate














: 23.976 fps

Audio #1
ID


















: 2
Format
















: AC-3
Format/Info














: Audio Coding 3
Mode extension












: CM (complete main)
Format settings, Endianness






: Big
Codec ID















: A_AC3
Duration















: 1h 38mn
Bit rate mode













: Constant
Bit rate















: 640 Kbps
Channel count













: 6 channels
Channel positions











: Front: L C R, Side: L R, LFE
Sampling rate













: 48.0 KHz
Bit depth















: 16 bits
Compression mode











: Lossy
Stream size














: 449 MiB (4%)
Language















: Latin
Default
















: Yes
Forced
















: No

Audio #2
ID


















: 3
Format
















: AC-3
Format/Info














: Audio Coding 3
Mode extension












: CM (complete main)
Format settings, Endianness






: Big
Codec ID















: A_AC3
Duration















: 1h 38mn
Bit rate mode













: Constant
Bit rate















: 640 Kbps
Channel count













: 6 channels
Channel positions











: Front: L C R, Side: L R, LFE
Sampling rate













: 48.0 KHz
Bit depth















: 16 bits
Compression mode











: Lossy
Stream size














: 449 MiB (4%)
Language















: English
Default
















: No
Forced
















: No

Text #1
ID


















: 4
Format
















: PGS
Muxing mode














: zlib
Codec ID















: S_HDMV/PGS
Codec ID/Info













: The same subtitle format used on BDs/HD-DVDs
Language















: Latin
Default
















: No
Forced
















: No

Text #2
ID


















: 5
Format
















: PGS
Muxing mode














: zlib
Codec ID















: S_HDMV/PGS
Codec ID/Info













: The same subtitle format used on BDs/HD-DVDs
Language















: English
Default
















: No
Forced
















: No

Menu
00:00:00.000













: en:(01)00:00:00:000
00:08:10.781













: en:(02)00:08:10:781
00:14:15.813













: en:(03)00:14:15:813
00:23:38.250













: en:(04)00:23:38:250
00:30:02.050













: en:(05)00:30:02:050
00:39:31.869













: en:(06)00:39:31:869
00:48:16.059













: en:(07)00:48:16:059
00:54:12.999













: en:(08)00:54:12:999
01:02:26.492













: en:(09)01:02:26:492
01:12:36.727













: en:(10)01:12:36:727
01:20:57.769













: en:(11)01:20:57:769
01:30:52.071













: en:(12)01:30:52:071
01:38:04.503













: en:(13)01:38:04:503