Hobbit: Pustkowie Smauga 3D [miniHD-gixerk9] Dubbing PL

Magnet Download Torrent Download

Size : 2.75 GiB (2958051717 Bytes)

Druga część filmowej adaptacja książki J.R.R. Tolkiena, będąca wstępem do słynnego "Władcy Pierścieni". To opowieść pełna niezwykłych wydarzeń i magicznych postaci, przedstawiająca odwieczną walkę dobra ze złem. Po niezwykłym sukcesie trylogii wyreżyserowanej przez Petera Jacksona, publiczność musiała czekać aż dziewięć długich lat, w czasie których bardzo wiele działo się wokół zapowiadanej ekranizacji "Hobbita". Plotki i spekulacje wciąż podtrzymywały wielkie zainteresowanie nowym filmem, który ostatecznie zrealizowany zostanie w trzech częściach: "Hobbit: Niezwykła podróż", "Hobbit: Pustkowie Smauga" oraz "Hobbit: Tam i z powrotem".

http://i.imgur.com/DHSg7B8.jpg
http://i.imgur.com/hEZke0c.jpg
http://i.imgur.com/wpUkyXu.jpg
http://i.imgur.com/SrFYyR2.jpg
http://i.imgur.com/ucjSKKF.jpg


Dane Techniczne:

Format
















: Matroska
Format version












: Version 2
File size















: 2.75 GiB
Duration















: 2h 41mn
Overall bit rate











: 2 445 Kbps
Movie name














: The Hobbit: The Desolation of Smaug (2013) (mini-HD.3D.OU-gixerk9)
Encoded date













: UTC 2014-03-22 15:26:16
Writing application










: mkvmerge v5.7.0 ('The Whirlwind') built on Jul
8 2012 20:08:51
Writing library












: libebml v1.2.3 + libmatroska v1.3.0

Video
ID


















: 1
Format
















: AVC
Format/Info














: Advanced Video Codec
Format profile












: [email protected]/* */
Format settings, CABAC








: Yes
Format settings, ReFrames







: 2 frames
Codec ID















: V_MPEG4/ISO/AVC
Duration















: 2h 41mn
Bit rate















: 2 140 Kbps
Width

















: 1 920 pixels
Height
















: 1 080 pixels
Display aspect ratio









: 16:9
Frame rate mode












: Constant
Frame rate














: 23.976 fps
Color space














: YUV
Chroma subsampling










: 4:2:0
Bit depth















: 8 bits
Scan type















: Progressive
Bits/(Pixel*Frame)










: 0.043
Stream size














: 2.41 GiB (88%)
Writing library












: x264 core
Default
















: Yes
Forced
















: No
Color primaries












: BT.709
Transfer characteristics







: BT.709
Matrix coefficients










: BT.709

Audio
ID


















: 2
Format
















: AC-3
Format/Info














: Audio Coding 3
Mode extension












: CM (complete main)
Format settings, Endianness






: Big
Codec ID















: A_AC3
Duration















: 2h 41mn
Bit rate mode













: Constant
Bit rate















: 256 Kbps
Channel(s)














: 6 channels
Channel positions











: Front: L C R, Side: L R, LFE
Sampling rate













: 48.0 KHz
Bit depth















: 16 bits
Compression mode











: Lossy
Stream size














: 295 MiB (10%)
Title

















: Dubbing PL
Language















: Polish
Default
















: Yes
Forced
















: No